Welkom gast! Registreren
Geluid rtlxl niet synchroon
#21
Hier is al een logboek van vanavond pdc premier league darts van rtl 7 van 12-02-2015 met adaptive aan! Weer maar 20 seconden gedownload.

Code:
Start (IC1pICJodHRwOi8vbWFuaWZlc3QudXMucnRsLm5sL3J0bHhsL25ldHdvcmsvaXBhZC9hZGFwdGl2ZS9jb21wb25lbnRzL3Nwb3J0L3J0bDdkYXJ0cy8zMzc3MTQvOTY4ZWE4MjAtNmVhYS0zMzUzLWI4MjgtY2U1OGVmYWNiYmQ1LnNzbS85NjhlYTgyMC02ZWFhLTMzNTMtYjgyOC1jZTU4ZWZhY2JiZDUtYXVkaW89MTI4MDAwLXZpZGVvPTQyNTAwMDAubTN1OD9mPWlwYWQmb3V0PS5tcDQiICAtYyBjb3B5IC15IC1hYyAyIC10aHJlYWRzIDAgLWJzZjphIGFhY19hZHRzdG9hc2MgICAtciAyNSAtbWV0YWRhdGEgdGl0bGU9IlJUTCA3IERhcnRzOiBQcmVtaWVyIExlYWd1ZSAtIEFmbGV2ZXJpbmcgMiIgLW1ldGFkYXRhIHllYXI9IjIwMTUiIC1tZXRhZGF0YSBjb3B5cmlnaHQ9IihjKSBSVEw3LCAyMDE1IiAtbWV0YWRhdGEgZGVzY3JpcHRpb249IkRlemUgZWxmZGUgZWRpdGllIHZhbiBkZSBQcmVtaWVyIExlYWd1ZSBEYXJ0cyB3b3JkdCBnZXNwZWVsZCBvcCB2ZXJzY2hpbGxlbmRlIGxvY2F0aWVzIGluIEdyb290LUJyaXR0YW5uaT8gZW4gSWVybGFuZC4gVGllbiB0b3BkYXJ0ZXJzIGJlZ2lubmVuIGFhbiBoZXQgdG9lcm5vb2ksIG1hYXIgZXIga2FuIGVyIG1hYXIgPz9uIHRvdCBrYW1waW9lbiB3b3JkZW4gZ2Vrcm9vbmQuIiAtbWV0YWRhdGEgc2hvdz0iUlRMIDcgRGFydHM6IFByZW1pZXIgTGVhZ3VlIiAtbWV0YWRhdGEgbmV0d29yaz0iUlRMNyIgLW1ldGFkYXRhIG1lZGlhX3R5cGU9MTAgLW1ldGFkYXRhIHNlYXNvbl9udW1iZXI9NSAtbWV0YWRhdGEgZXBpc29kZV9pZD0iMiIgLW1ldGFkYXRhIGVwaXNvZGVfc2hvcnQ9MiAiQzpcVXNlcnNcUmFtb25cRG9jdW1lbnRzXE5ldFhmZXJcUlRMIDcgRGFydHM7IFByZW1pZXIgTGVhZ3VlIFsyMDE1MDIxMl0ubXA0Ig)

ffmpeg version N-67022-g69071e8 Copyright (c) 2000-2014 the FFmpeg developers
  built on Oct 19 2014 15:41:44 with gcc 4.8.0 (GCC)
  configuration: --arch=x86 --target-os=mingw32 --cross-prefix=/home/-/Downloads/ffmpeg/sandbox/mingw-w64-i686/bin/i686-w64-mingw32- --pkg-config=pkg-config --enable-gpl --enable-libx264 --enable-avisynth --enable-libmp3lame --enable-version3 --enable-zlib --enable-librtmp --enable-libopenjpeg --enable-gnutls --enable-libfreetype --enable-fontconfig --enable-libass --disable-w32threads --enable-libvo-aacenc --enable-bzlib --enable-libxavs --extra-cflags=-DPTW32_STATIC_LIB --enable-libopencore-amrwb --enable-libvo-amrwbenc --enable-libsoxr --enable-libutvideo --enable-static --disable-shared --extra-cflags=
  libavutil      54. 10.100 / 54. 10.100
  libavcodec     56.  8.102 / 56.  8.102
  libavformat    56.  9.101 / 56.  9.101
  libavdevice    56.  1.100 / 56.  1.100
  libavfilter     5.  1.106 /  5.  1.106
  libswscale      3.  1.101 /  3.  1.101
  libswresample   1.  1.100 /  1.  1.100
  libpostproc    53.  3.100 / 53.  3.100
Input #0, hls,applehttp, from 'http://manifest.us.rtl.nl/rtlxl/network/ipad/adaptive/components/sport/rtl7darts/337714/968ea820-6eaa-3353-b828-ce58efacbbd5.ssm/968ea820-6eaa-3353-b828-ce58efacbbd5-audio=128000-video=4250000.m3u8?f=ipad&out=.mp4':
  Duration: N/A, start: 10160.239989, bitrate: 132 kb/s
  Program 0
    Metadata:
      variant_bitrate : 0
    Stream #0:0: Audio: aac ([15][0][0][0] / 0x000F), 48000 Hz, stereo, fltp, 132 kb/s
    Stream #0:1: Video: h264 (High) ([27][0][0][0] / 0x001B), yuv420p, 1280x720, 25 fps, 25 tbr, 90k tbn, 50 tbc
Output #0, mp4, to 'C:\Users\M\Documents\Gemist\RTL 7 Darts; Premier League [20150212].mp4':
  Metadata:
    title           : RTL 7 Darts: Premier League - Aflevering 2
    year            : 2015
    copyright       : (c) RTL7, 2015
    description     : Deze elfde editie van de Premier League Darts wordt gespeeld op verschillende locaties in Groot-Brittannië en Ierland. Tien topdarters beginnen aan het toernooi, maar er kan er maar één tot kampioen worden gekroond.
    show            : RTL 7 Darts: Premier League
    network         : RTL7
    media_type      : 10
    season_number   : 5
    episode_id      : 2
    episode_short   : 2
    encoder         : Lavf56.9.101
    Stream #0:0: Video: h264 ([33][0][0][0] / 0x0021), yuv420p, 1280x720, q=2-31, 25 fps, 12800 tbn, 25 tbc
    Stream #0:1: Audio: aac ([64][0][0][0] / 0x0040), 48000 Hz, stereo, 132 kb/s
Stream mapping:
  Stream #0:1 -> #0:0 (copy)
  Stream #0:0 -> #0:1 (copy)
Press [q] to stop, [?] for help
frame=   91 fps=0.0 q=-1.0 size=    1922kB time=00:00:03.64 bitrate=4324.5kbits/s   
frame=  149 fps=143 q=-1.0 size=    3144kB time=00:00:05.96 bitrate=4321.1kbits/s   
frame=  216 fps=138 q=-1.0 size=    4563kB time=00:00:08.64 bitrate=4326.1kbits/s   
frame=  250 fps=120 q=-1.0 size=    5261kB time=00:00:10.01 bitrate=4303.2kbits/s   
frame=  301 fps=116 q=-1.0 size=    6289kB time=00:00:12.04 bitrate=4279.3kbits/s   
frame=  358 fps=115 q=-1.0 size=    7636kB time=00:00:14.32 bitrate=4368.3kbits/s   
frame=  418 fps=115 q=-1.0 size=    8943kB time=00:00:16.72 bitrate=4381.5kbits/s   
frame=  477 fps=115 q=-1.0 size=   10186kB time=00:00:19.08 bitrate=4373.5kbits/s   
[http @ 01b2e680] HTTP error 404 File or directory not found.
[crypto @ 01b4e660] Unable to open input
[hls,applehttp @ 01b36520] Failed to open segment of playlist 0
[http @ 01b2e680] HTTP error 404 File or directory not found.
[crypto @ 01b4e660] Unable to open input
[hls,applehttp @ 01b36520] Failed to open segment of playlist 0
frame=  500 fps=114 q=-1.0 Lsize=   10695kB time=00:00:20.00 bitrate=4380.5kbits/s   
video:10375kB audio:306kB subtitle:0kB other streams:0kB global headers:0kB muxing overhead: 0.124606%
Antwoord
#22
En nog eentje geprobeerd RTL Late Night van 12-02-2015. Ook maar weer 20 seconden gedownload! Hoop dat je hier iets aan hebt anders hoor ik het graag als ik nog iets anders kan doen om te helpen achter de oorzaak van dit probleem te komen. Nogmaals alvast weer dank voor de ondersteuning!

Code:
Start (IC1pICJodHRwOi8vbWFuaWZlc3QudXMucnRsLm5sL3J0bHhsL25ldHdvcmsvaXBhZC9hZGFwdGl2ZS9jb21wb25lbnRzL3ZpZGVvcmVjb3JkZXIvMzAvMzAxOTc4LzMzNTUyOC83N2Q0M2VmMi05MWMwLWExOTctYmM5MS02MDM2ZWY5NTdlMjcuc3NtLzc3ZDQzZWYyLTkxYzAtYTE5Ny1iYzkxLTYwMzZlZjk1N2UyNy1hdWRpbz0xMjgwMDAtdmlkZW89NDI1MDAwMC5tM3U4P2Y9aXBhZCZvdXQ9Lm1wNCIgIC1jIGNvcHkgLXkgLWFjIDIgLXRocmVhZHMgMCAtYnNmOmEgYWFjX2FkdHN0b2FzYyAgIC1yIDI1IC1tZXRhZGF0YSB0aXRsZT0iUlRMIExhdGUgTmlnaHQgLSBBZmxldmVyaW5nIDI0IiAtbWV0YWRhdGEgeWVhcj0iMjAxNSIgLW1ldGFkYXRhIGNvcHlyaWdodD0iKGMpIFJUTDQsIDIwMTUiIC1tZXRhZGF0YSBkZXNjcmlwdGlvbj0iSmFuIEtvb2lqbWFuIHZlcnRlbHQgb3ZlciB6aWpuIG5pZXV3ZSBwcm9ncmFtbWEgJ0J1aXRlbmxhbmRzZSBHZXZhbmdlbmlzc2VuOiBIb2xsYW5kZXJzIGluIGRlIENlbCcuIERlIG9uZGVyZ2FuZyBlbiBvcGtvbXN0IHZhbiBFcmlrIGRlIFZsaWVnZXIuIFJvYmluIFNjaHVseiBlbiBKYXNtaW5lIHppbmdlbiAnU3VuIEdvZXMgRG93bicuIFNjaGFhdHN2ZXRlcmFuZW4gdWl0IHplcyB2ZXJzY2hpbGxlbmRlIGdlbmVyYXRpZXMgZ2FhbiB2b2xnZW5kZSB3ZWVrIGVlbiBpbnRlcmxhbmQgc2NoYWF0c2VuIHRlZ2VuIE5vb3J3Li4uIiAtbWV0YWRhdGEgc2hvdz0iUlRMIExhdGUgTmlnaHQiIC1tZXRhZGF0YSBuZXR3b3JrPSJSVEw0IiAtbWV0YWRhdGEgbWVkaWFfdHlwZT0xMCAtbWV0YWRhdGEgc2Vhc29uX251bWJlcj00IC1tZXRhZGF0YSBlcGlzb2RlX2lkPSIyNCIgLW1ldGFkYXRhIGVwaXNvZGVfc2hvcnQ9MjQgIkM6XFVzZXJzXFJhbW9uXERvY3VtZW50c1xOZXRYZmVyXFJUTCBMYXRlIE5pZ2h0IFsyMDE1MDIxMl0ubXA0Ig)

ffmpeg version N-67022-g69071e8 Copyright (c) 2000-2014 the FFmpeg developers
  built on Oct 19 2014 15:41:44 with gcc 4.8.0 (GCC)
  configuration: --arch=x86 --target-os=mingw32 --cross-prefix=/home/-/Downloads/ffmpeg/sandbox/mingw-w64-i686/bin/i686-w64-mingw32- --pkg-config=pkg-config --enable-gpl --enable-libx264 --enable-avisynth --enable-libmp3lame --enable-version3 --enable-zlib --enable-librtmp --enable-libopenjpeg --enable-gnutls --enable-libfreetype --enable-fontconfig --enable-libass --disable-w32threads --enable-libvo-aacenc --enable-bzlib --enable-libxavs --extra-cflags=-DPTW32_STATIC_LIB --enable-libopencore-amrwb --enable-libvo-amrwbenc --enable-libsoxr --enable-libutvideo --enable-static --disable-shared --extra-cflags=
  libavutil      54. 10.100 / 54. 10.100
  libavcodec     56.  8.102 / 56.  8.102
  libavformat    56.  9.101 / 56.  9.101
  libavdevice    56.  1.100 / 56.  1.100
  libavfilter     5.  1.106 /  5.  1.106
  libswscale      3.  1.101 /  3.  1.101
  libswresample   1.  1.100 /  1.  1.100
  libpostproc    53.  3.100 / 53.  3.100
Input #0, hls,applehttp, from 'http://manifest.us.rtl.nl/rtlxl/network/ipad/adaptive/components/videorecorder/30/301978/335528/77d43ef2-91c0-a197-bc91-6036ef957e27.ssm/77d43ef2-91c0-a197-bc91-6036ef957e27-audio=128000-video=4250000.m3u8?f=ipad&out=.mp4':
  Duration: N/A, start: 2581.968989, bitrate: 118 kb/s
  Program 0
    Metadata:
      variant_bitrate : 0
    Stream #0:0: Audio: aac ([15][0][0][0] / 0x000F), 48000 Hz, stereo, fltp, 118 kb/s
    Stream #0:1: Video: h264 (High) ([27][0][0][0] / 0x001B), yuv420p, 1280x720, 25 fps, 25 tbr, 90k tbn, 50 tbc
Output #0, mp4, to 'C:\Users\M\Documents\Gemist\RTL Late Night [20150212].mp4':
  Metadata:
    title           : RTL Late Night - Aflevering 24
    year            : 2015
    copyright       : (c) RTL4, 2015
    description     : Jan Kooijman vertelt over zijn nieuwe programma 'Buitenlandse Gevangenissen: Hollanders in de Cel'. De ondergang en opkomst van Erik de Vlieger. Robin Schulz en Jasmine zingen 'Sun Goes Down'. Schaatsveteranen uit zes verschillende generaties gaan volgend
    show            : RTL Late Night
    network         : RTL4
    media_type      : 10
    season_number   : 4
    episode_id      : 24
    episode_short   : 24
    encoder         : Lavf56.9.101
    Stream #0:0: Video: h264 ([33][0][0][0] / 0x0021), yuv420p, 1280x720, q=2-31, 25 fps, 12800 tbn, 25 tbc
    Stream #0:1: Audio: aac ([64][0][0][0] / 0x0040), 48000 Hz, stereo, 118 kb/s
Stream mapping:
  Stream #0:1 -> #0:0 (copy)
  Stream #0:0 -> #0:1 (copy)
Press [q] to stop, [?] for help
frame=   89 fps=0.0 q=-1.0 size=    1802kB time=00:00:03.56 bitrate=4146.3kbits/s   
frame=  146 fps=146 q=-1.0 size=    3033kB time=00:00:05.84 bitrate=4254.1kbits/s   
frame=  201 fps=133 q=-1.0 size=    4306kB time=00:00:08.04 bitrate=4386.9kbits/s   
frame=  250 fps=110 q=-1.0 size=    5463kB time=00:00:10.00 bitrate=4474.1kbits/s   
frame=  306 fps=110 q=-1.0 size=    6673kB time=00:00:12.24 bitrate=4466.4kbits/s   
frame=  376 fps=115 q=-1.0 size=    7965kB time=00:00:15.04 bitrate=4338.6kbits/s   
frame=  430 fps=114 q=-1.0 size=    9146kB time=00:00:17.20 bitrate=4356.0kbits/s   
frame=  482 fps=113 q=-1.0 size=   10361kB time=00:00:19.28 bitrate=4402.5kbits/s   
[http @ 04d2af00] HTTP error 404 File or directory not found.
[crypto @ 01c3e300] Unable to open input
[hls,applehttp @ 01b46740] Failed to open segment of playlist 0
[http @ 01b465e0] HTTP error 404 File or directory not found.
[crypto @ 01b5caa0] Unable to open input
[hls,applehttp @ 01b46740] Failed to open segment of playlist 0
frame=  500 fps=112 q=-1.0 Lsize=   10813kB time=00:00:20.00 bitrate=4427.1kbits/s   
video:10493kB audio:306kB subtitle:0kB other streams:0kB global headers:0kB muxing overhead: 0.124385%
Antwoord
#23
Nu zelfs niet meer te downloaden via de normale optie heb ook premier league darts via de normale optie dus zonder adaptive geprobeerd en dan download hij ook maar een gedeelte van de uitzending (gebruikelijk is een bestand van rond de 5 a 6 gig voor de premier league omdat het een uitzending van rond de 4 uur is). Nu stopt hij bij 1,3 gig en als ik wil vooruitspoelen in de uitzending als ik hem bekijk om te controleren of hij goed gedownload is dan stopt hij gelijk is niet eens mogelijk. Heb geprobeerd een log te maken hiervan alleen lukt blijkbaar niet zonder adaptive aan omdat als ik dan de log open hij me de log blijft geven van rtl late night die ik hiervoor al geplaatst heb zelfs na aflsuiten van het programma en opnieuw opstarten pc en opnieuw downloaden van premier league darts van 12-02-2015. Vind dit maar zeer vreemd ineens, vraag me af wat rtl allemaal aan het doen is, dat ze de site toch zo laten zoals eerst toen werkte alles tenminste vlekkeloos. Nu is het bijna onmogelijk op een fatsoenlijke manier iets van rtl xl te downloaden. Maar daar kun jij als webmaster niks aan doen dat begrijp ik volledig, hoop alleen dat er toch ergens iets gevonden wordt wat dit zeer vervelende probleem van een voor de rest prima programma op te lossen valt! Mocht je nog verdere info willen of dat ik nog iets doe of test hoor ik het natuurlijk graag, nogmaals alvast bedankt!
Antwoord
#24
Denk doe eens gek verwijder de beta versie eens en zet de ouder stabiele versie er weer eens op 2.8.1.8a. Weer geprobeerd de premier league darts van gisteravond te downloaden zonder adaptive aan en zowaar gelukt ook zonder geluidsprobleem dit keer maar dit kan natuurlijk meer geluk dan wijsheid zijn betreffende het geluid omdat ik al eerder aangaf dat niet alle rtl programma's hier last van lijken te hebben. Nu ook zoals ik al zei een bestand van rond de 5,5 gig. Dus vermoed dat het probleem toch in de nieuwe beta versie zit ergens. Zal hem ook in de oude versie nog proberen te downloaden met adaptive aan kijken wat hij dan doet en zal dan eventueel ook dat weer hier posten maar dat wordt wel morgen, genoeg uitgeprobeerd voor vannacht. Vooralsnog laat ik de oude stabiele versie even erop staan tot ik weer tegen een probleem oploop of er moet een nieuwe versie uitkomen die de bugs oplost natuurlijk stabiel of beta maakt mij niet uit, ik probeer het wel uit!
Antwoord
#25
De nieuwste bètaversie (2.8.1.13) heeft ook een bijgewerkte versie van FFmpeg; je zou kunnen kijken of dit nog effect heeft.
Antwoord
#26
Vandaag heb ik een update doorgevoerd betreffende de RTL-video's; degene die problemen hadden met adaptive video's die mislukten (1 minuut-downloads etc) zouden nog een kunnen proberen of ze nu meer succes hebben.
Antwoord
#27
Nieuw probleem: downloaden van afleveringen gaat prima. Geluid synchroon. Maar als ik dan het bestand converteer naar een ander bestandstype (met Any Video Converter) dan is het deel na de reclame weer niet synchroon. Enig idee hoe dat kan? Dit probleem nog nooit eerder gehad met deze programma's. Ik heb het met GTST afleveringen vanaf 16 maart.
Antwoord
#28
Het goede nieuws is dat het probleem met de audio-videosynchronisatie bij de MP4-bestanden die RTL aanbied opgelost lijkt te zijn, vandaar dat in alle versies nu de MP4 weer standaard gedownload wordt.
Antwoord
#29
Weer bedankt voor de service! Angel Dance
Antwoord
#30
(16 May 2015, 20:14)Webmaster schreef: Het goede nieuws is dat het probleem met de audio-videosynchronisatie bij de MP4-bestanden die RTL aanbied opgelost lijkt te zijn, vandaar dat in alle versies nu de MP4 weer standaard gedownload wordt.

Ik het er letterlijk net weer ééntje geprobeerd, maar nog steeds niet synchroon.
Antwoord


Ga naar locatie:


Gebruikers die dit topic lezen: 1 gast(en)