Welkom gast! Registreren
GemistDownloader 2.9.0.4  - VRT Nu download mislukt
#11
lp
Code:
Start (IC1oaWRlX2Jhbm5lciAtdXNlci1hZ2VudCAiTW96aWxsYS81LjAgKFdpbmRvd3MgTlQgNi4zOyBydjozNi4wKSBHZWNrby8yMDEwMDEwMSBGaXJlZm94LzM2LjAiICAtaSAiaHR0cHM6Ly9vbmRlbWFuZC13Lmx3Yy52cnRjZG4uYmUvY29udGVudC92b2QvdmlkLTg0Zjk5ZTYwLWM5NWQtNDVkNC1hODA1LTRlOGY2NDRkMDY0Zi1DRE5fMy92aWQtODRmOTllNjAtYzk1ZC00NWQ0LWE4MDUtNGU4ZjY0NGQwNjRmLUNETl8zX25vZHJtXzEwNmE1ODkyLTViN2ItNDEwZS1hZDIyLTk5ZDk1YTEwMzVmMy5pc20vLm0zdTgiICAtYzp2IGxpYngyNjQgLXByb2ZpbGU6diBtYWluIC1wcmVzZXQ6diBmYXN0IC1sZXZlbCAzLjEgLWFjb2RlYyBhYWMgLXkgLWFjIDIgLXRocmVhZHMgMCAtdmYgImFzcz1DXFw6L1VzZXJzL1BhdC9BcHBEYXRhL1JvYW1pbmcvR2VtaXN0RG93bmxvYWRlci9vbmRlcnRpdGVsaW5nLmFzcyIgLXE6YSAwIC1xOnYgMSAtciAyNSAtbWV0YWRhdGEgZW5jb2RlZF9ieT0iR2VtaXN0RG93bmxvYWRlciAyLjkuMC40IiAtbWV0YWRhdGEgdGl0bGU9IkVuZ2VsYW5kIiAtbWV0YWRhdGEgeWVhcj0iMjAxNyIgLW1ldGFkYXRhIGNvcHlyaWdodD0iKGMpIENhbnZhcywgMjAxNyIgLW1ldGFkYXRhIGRlc2NyaXB0aW9uPSJFbmdlbGFuZCBzdGFhdCBiZWtlbmQgb20gemlqbiByYWRpY2FsZSB2cmlqaGVpZCB2YW4gbWVuaW5nc3VpdGluZyBlbiBnZWxvb2ZzYmVsaWpkaW5nLiBFciBpcyBvZ2Vuc2NoaWpubGlqayBnZWVuIGVua2VsZSBiZXBlcmtpbmcgZW4gdmVlbCBtb3NsaW1zIHZlcnpla2VyZW4gSmFuIGRhdCBkaXQgdm9vciBoZW4gaGV0IGJlc3RlIGxhbmQgdGVyIHdlcmVsZCBpcy4gID8gIEphbiBwcmFhdCBpbiBMb25kZW4gbWV0IEhhYmliYSwgZWVuIGxpYmVyYWxlIGlzbGFtaXRpc2NoZSBiZWdyYWZlbmlzb25kZXJuZW1lciwgZW4gbWUuLi4iIC1tZXRhZGF0YSBzaG93PSJBbGxhaCBpbiBFdXJvcGEiIC1tZXRhZGF0YSBuZXR3b3JrPSJDYW52YXMiIC1tZXRhZGF0YSBtZWRpYV90eXBlPTEwICJEOlxkb3dubG9hZGVyXEFsbGFoIGluIEV1cm9wYSAtIEVuZ2VsYW5kIFsyMDE3MTAwNF0gKDEpLm1wNCI)

[mpegts @ 03c4f860] Invalid timestamps stream=0, pts=903600, dts=907200, size=3788
[mpegts @ 03c4f860] Invalid timestamps stream=0, pts=907200, dts=910800, size=3532
[mpegts @ 03c4f860] Invalid timestamps stream=0, pts=914400, dts=918000, size=3063
[mpegts @ 03c4f860] Invalid timestamps stream=0, pts=918000, dts=921600, size=2976
[mpegts @ 03c4f860] Invalid timestamps stream=0, pts=925200, dts=928800, size=3040
[mpegts @ 03c4f860] Invalid timestamps stream=0, pts=928800, dts=932400, size=3099
[mpegts @ 03c4f860] Invalid timestamps stream=0, pts=936000, dts=939600, size=4102
[mpegts @ 03c4f860] Invalid timestamps stream=0, pts=939600, dts=943200, size=6233
[mpegts @ 03c4f860] Invalid timestamps stream=0, pts=946800, dts=950400, size=6872
[mpegts @ 03c4f860] Invalid timestamps stream=0, pts=950400, dts=954000, size=6243
[mpegts @ 03c4f860] Invalid timestamps stream=0, pts=957600, dts=961200, size=9108
[mpegts @ 03c4f860] Invalid timestamps stream=0, pts=961200, dts=964800, size=6601
[mpegts @ 03c4f860] Invalid timestamps stream=0, pts=968400, dts=972000, size=6015
[mpegts @ 03c4f860] Invalid timestamps stream=0, pts=972000, dts=975600, size=6679
[hls,applehttp @ 0069cfe0] Invalid timestamps stream=6, pts=903600, dts=907200, size=3802
[hls,applehttp @ 0069cfe0] Invalid timestamps stream=6, pts=907200, dts=910800, size=3546
[hls,applehttp @ 0069cfe0] Invalid timestamps stream=6, pts=914400, dts=918000, size=3077
[hls,applehttp @ 0069cfe0] Invalid timestamps stream=6, pts=918000, dts=921600, size=2990
[hls,applehttp @ 0069cfe0] Invalid timestamps stream=6, pts=925200, dts=928800, size=3054
[hls,applehttp @ 0069cfe0] Invalid timestamps stream=6, pts=928800, dts=932400, size=3113
[hls,applehttp @ 0069cfe0] Invalid timestamps stream=6, pts=936000, dts=939600, size=4116
[hls,applehttp @ 0069cfe0] Invalid timestamps stream=6, pts=939600, dts=943200, size=6247
[hls,applehttp @ 0069cfe0] Invalid timestamps stream=6, pts=946800, dts=950400, size=6886
[hls,applehttp @ 0069cfe0] Invalid timestamps stream=6, pts=950400, dts=954000, size=6257
[hls,applehttp @ 0069cfe0] Invalid timestamps stream=6, pts=957600, dts=961200, size=9122
[hls,applehttp @ 0069cfe0] Invalid timestamps stream=6, pts=961200, dts=964800, size=6615
[hls,applehttp @ 0069cfe0] Invalid timestamps stream=6, pts=968400, dts=972000, size=6029
Input #0, hls,applehttp, from 'https://ondemand-w.lwc.vrtcdn.be/content/vod/vid-84f99e60-c95d-45d4-a805-4e8f644d064f-CDN_3/vid-84f99e60-c95d-45d4-a805-4e8f644d064f-CDN_3_nodrm_106a5892-5b7b-410e-ad22-99d95a1035f3.ism/.m3u8':
  Duration: 00:43:06.32, start: 10.000000, bitrate: 0 kb/s
  Program 0
    Metadata:
      variant_bitrate : 218000
    Stream #0:2: Video: h264 (Constrained Baseline) ([27][0][0][0] / 0x001B), yuv420p, 416x234 [SAR 1:1 DAR 16:9], 25 fps, 25 tbr, 90k tbn, 50 tbc
    Metadata:
      variant_bitrate : 218000
    Stream #0:0(nl): Audio: aac (HE-AAC), 48000 Hz, stereo, fltp, 67 kb/s (default)
    Metadata:
      comment         : Dutch/Flemish
      variant_bitrate : 218000
  Program 1
    Metadata:
      variant_bitrate : 482000
    Stream #0:3: Video: h264 (Constrained Baseline) ([27][0][0][0] / 0x001B), yuv420p, 480x270 [SAR 1:1 DAR 16:9], 25 fps, 25 tbr, 90k tbn, 50 tbc
    Metadata:
      variant_bitrate : 482000
    Stream #0:1(nl): Audio: aac (LC), 48000 Hz, stereo, fltp, 90 kb/s (default)
    Metadata:
      comment         : Dutch/Flemish
  Program 2
    Metadata:
      variant_bitrate : 869000
    Stream #0:4: Video: h264 (Constrained Baseline) ([27][0][0][0] / 0x001B), yuv420p, 640x360 [SAR 1:1 DAR 16:9], 25 fps, 25 tbr, 90k tbn, 50 tbc
    Metadata:
      variant_bitrate : 869000
    Stream #0:1(nl): Audio: aac (LC), 48000 Hz, stereo, fltp, 90 kb/s (default)
    Metadata:
      comment         : Dutch/Flemish
  Program 3
    Metadata:
      variant_bitrate : 1242000
    Stream #0:5: Video: h264 (Constrained Baseline) ([27][0][0][0] / 0x001B), yuv420p, 768x432 [SAR 1:1 DAR 16:9], 25 fps, 25 tbr, 90k tbn, 50 tbc
    Metadata:
      variant_bitrate : 1242000
    Stream #0:1(nl): Audio: aac (LC), 48000 Hz, stereo, fltp, 90 kb/s (default)
    Metadata:
      comment         : Dutch/Flemish
  Program 4
    Metadata:
      variant_bitrate : 2198000
    Stream #0:6: Video: h264 (Main) ([27][0][0][0] / 0x001B), yuv420p, 960x540 [SAR 1:1 DAR 16:9], 25 fps, 25 tbr, 90k tbn, 50 tbc
    Metadata:
      variant_bitrate : 2198000
    Stream #0:1(nl): Audio: aac (LC), 48000 Hz, stereo, fltp, 90 kb/s (default)
    Metadata:
      comment         : Dutch/Flemish
[Parsed_ass_0 @ 037c9920] Shaper: FriBidi 0.19.4 (SIMPLE)
[Parsed_ass_0 @ 037c9920] Using font provider directwrite
[Parsed_ass_0 @ 037c9920] ass_read_file(C:/Users/Pat/AppData/Roaming/GemistDownloader/ondertiteling.ass): fopen failed
[Parsed_ass_0 @ 037c9920] Could not create a libass track when reading file 'C:/Users/Pat/AppData/Roaming/GemistDownloader/ondertiteling.ass'
[AVFilterGraph @ 03583700] Error initializing filter 'ass' with args 'C\:/Users/Pat/AppData/Roaming/GemistDownloader/ondertiteling.ass'
Error opening filters!
logboek
Antwoord
#12
(11 October 2017, 18:42)patdegrijzen schreef: lp
Code:
Start (IC1oaWRlX2Jhbm5lciAtdXNlci1hZ2VudCAiTW96aWxsYS81LjAgKFdpbmRvd3MgTlQgNi4zOyBydjozNi4wKSBHZWNrby8yMDEwMDEwMSBGaXJlZm94LzM2LjAiICAtaSAiaHR0cHM6Ly9vbmRlbWFuZC13Lmx3Yy52cnRjZG4uYmUvY29udGVudC92b2QvdmlkLTg0Zjk5ZTYwLWM5NWQtNDVkNC1hODA1LTRlOGY2NDRkMDY0Zi1DRE5fMy92aWQtODRmOTllNjAtYzk1ZC00NWQ0LWE4MDUtNGU4ZjY0NGQwNjRmLUNETl8zX25vZHJtXzEwNmE1ODkyLTViN2ItNDEwZS1hZDIyLTk5ZDk1YTEwMzVmMy5pc20vLm0zdTgiICAtYzp2IGxpYngyNjQgLXByb2ZpbGU6diBtYWluIC1wcmVzZXQ6diBmYXN0IC1sZXZlbCAzLjEgLWFjb2RlYyBhYWMgLXkgLWFjIDIgLXRocmVhZHMgMCAtdmYgImFzcz1DXFw6L1VzZXJzL1BhdC9BcHBEYXRhL1JvYW1pbmcvR2VtaXN0RG93bmxvYWRlci9vbmRlcnRpdGVsaW5nLmFzcyIgLXE6YSAwIC1xOnYgMSAtciAyNSAtbWV0YWRhdGEgZW5jb2RlZF9ieT0iR2VtaXN0RG93bmxvYWRlciAyLjkuMC40IiAtbWV0YWRhdGEgdGl0bGU9IkVuZ2VsYW5kIiAtbWV0YWRhdGEgeWVhcj0iMjAxNyIgLW1ldGFkYXRhIGNvcHlyaWdodD0iKGMpIENhbnZhcywgMjAxNyIgLW1ldGFkYXRhIGRlc2NyaXB0aW9uPSJFbmdlbGFuZCBzdGFhdCBiZWtlbmQgb20gemlqbiByYWRpY2FsZSB2cmlqaGVpZCB2YW4gbWVuaW5nc3VpdGluZyBlbiBnZWxvb2ZzYmVsaWpkaW5nLiBFciBpcyBvZ2Vuc2NoaWpubGlqayBnZWVuIGVua2VsZSBiZXBlcmtpbmcgZW4gdmVlbCBtb3NsaW1zIHZlcnpla2VyZW4gSmFuIGRhdCBkaXQgdm9vciBoZW4gaGV0IGJlc3RlIGxhbmQgdGVyIHdlcmVsZCBpcy4gID8gIEphbiBwcmFhdCBpbiBMb25kZW4gbWV0IEhhYmliYSwgZWVuIGxpYmVyYWxlIGlzbGFtaXRpc2NoZSBiZWdyYWZlbmlzb25kZXJuZW1lciwgZW4gbWUuLi4iIC1tZXRhZGF0YSBzaG93PSJBbGxhaCBpbiBFdXJvcGEiIC1tZXRhZGF0YSBuZXR3b3JrPSJDYW52YXMiIC1tZXRhZGF0YSBtZWRpYV90eXBlPTEwICJEOlxkb3dubG9hZGVyXEFsbGFoIGluIEV1cm9wYSAtIEVuZ2VsYW5kIFsyMDE3MTAwNF0gKDEpLm1wNCI)

[mpegts @ 03c4f860] Invalid timestamps stream=0, pts=903600, dts=907200, size=3788
[mpegts @ 03c4f860] Invalid timestamps stream=0, pts=907200, dts=910800, size=3532
[mpegts @ 03c4f860] Invalid timestamps stream=0, pts=914400, dts=918000, size=3063
[mpegts @ 03c4f860] Invalid timestamps stream=0, pts=918000, dts=921600, size=2976
[mpegts @ 03c4f860] Invalid timestamps stream=0, pts=925200, dts=928800, size=3040
[mpegts @ 03c4f860] Invalid timestamps stream=0, pts=928800, dts=932400, size=3099
[mpegts @ 03c4f860] Invalid timestamps stream=0, pts=936000, dts=939600, size=4102
[mpegts @ 03c4f860] Invalid timestamps stream=0, pts=939600, dts=943200, size=6233
[mpegts @ 03c4f860] Invalid timestamps stream=0, pts=946800, dts=950400, size=6872
[mpegts @ 03c4f860] Invalid timestamps stream=0, pts=950400, dts=954000, size=6243
[mpegts @ 03c4f860] Invalid timestamps stream=0, pts=957600, dts=961200, size=9108
[mpegts @ 03c4f860] Invalid timestamps stream=0, pts=961200, dts=964800, size=6601
[mpegts @ 03c4f860] Invalid timestamps stream=0, pts=968400, dts=972000, size=6015
[mpegts @ 03c4f860] Invalid timestamps stream=0, pts=972000, dts=975600, size=6679
[hls,applehttp @ 0069cfe0] Invalid timestamps stream=6, pts=903600, dts=907200, size=3802
[hls,applehttp @ 0069cfe0] Invalid timestamps stream=6, pts=907200, dts=910800, size=3546
[hls,applehttp @ 0069cfe0] Invalid timestamps stream=6, pts=914400, dts=918000, size=3077
[hls,applehttp @ 0069cfe0] Invalid timestamps stream=6, pts=918000, dts=921600, size=2990
[hls,applehttp @ 0069cfe0] Invalid timestamps stream=6, pts=925200, dts=928800, size=3054
[hls,applehttp @ 0069cfe0] Invalid timestamps stream=6, pts=928800, dts=932400, size=3113
[hls,applehttp @ 0069cfe0] Invalid timestamps stream=6, pts=936000, dts=939600, size=4116
[hls,applehttp @ 0069cfe0] Invalid timestamps stream=6, pts=939600, dts=943200, size=6247
[hls,applehttp @ 0069cfe0] Invalid timestamps stream=6, pts=946800, dts=950400, size=6886
[hls,applehttp @ 0069cfe0] Invalid timestamps stream=6, pts=950400, dts=954000, size=6257
[hls,applehttp @ 0069cfe0] Invalid timestamps stream=6, pts=957600, dts=961200, size=9122
[hls,applehttp @ 0069cfe0] Invalid timestamps stream=6, pts=961200, dts=964800, size=6615
[hls,applehttp @ 0069cfe0] Invalid timestamps stream=6, pts=968400, dts=972000, size=6029
Input #0, hls,applehttp, from 'https://ondemand-w.lwc.vrtcdn.be/content/vod/vid-84f99e60-c95d-45d4-a805-4e8f644d064f-CDN_3/vid-84f99e60-c95d-45d4-a805-4e8f644d064f-CDN_3_nodrm_106a5892-5b7b-410e-ad22-99d95a1035f3.ism/.m3u8':
 Duration: 00:43:06.32, start: 10.000000, bitrate: 0 kb/s
 Program 0
   Metadata:
     variant_bitrate : 218000
   Stream #0:2: Video: h264 (Constrained Baseline) ([27][0][0][0] / 0x001B), yuv420p, 416x234 [SAR 1:1 DAR 16:9], 25 fps, 25 tbr, 90k tbn, 50 tbc
   Metadata:
     variant_bitrate : 218000
   Stream #0:0(nl): Audio: aac (HE-AAC), 48000 Hz, stereo, fltp, 67 kb/s (default)
   Metadata:
     comment         : Dutch/Flemish
     variant_bitrate : 218000
 Program 1
   Metadata:
     variant_bitrate : 482000
   Stream #0:3: Video: h264 (Constrained Baseline) ([27][0][0][0] / 0x001B), yuv420p, 480x270 [SAR 1:1 DAR 16:9], 25 fps, 25 tbr, 90k tbn, 50 tbc
   Metadata:
     variant_bitrate : 482000
   Stream #0:1(nl): Audio: aac (LC), 48000 Hz, stereo, fltp, 90 kb/s (default)
   Metadata:
     comment         : Dutch/Flemish
 Program 2
   Metadata:
     variant_bitrate : 869000
   Stream #0:4: Video: h264 (Constrained Baseline) ([27][0][0][0] / 0x001B), yuv420p, 640x360 [SAR 1:1 DAR 16:9], 25 fps, 25 tbr, 90k tbn, 50 tbc
   Metadata:
     variant_bitrate : 869000
   Stream #0:1(nl): Audio: aac (LC), 48000 Hz, stereo, fltp, 90 kb/s (default)
   Metadata:
     comment         : Dutch/Flemish
 Program 3
   Metadata:
     variant_bitrate : 1242000
   Stream #0:5: Video: h264 (Constrained Baseline) ([27][0][0][0] / 0x001B), yuv420p, 768x432 [SAR 1:1 DAR 16:9], 25 fps, 25 tbr, 90k tbn, 50 tbc
   Metadata:
     variant_bitrate : 1242000
   Stream #0:1(nl): Audio: aac (LC), 48000 Hz, stereo, fltp, 90 kb/s (default)
   Metadata:
     comment         : Dutch/Flemish
 Program 4
   Metadata:
     variant_bitrate : 2198000
   Stream #0:6: Video: h264 (Main) ([27][0][0][0] / 0x001B), yuv420p, 960x540 [SAR 1:1 DAR 16:9], 25 fps, 25 tbr, 90k tbn, 50 tbc
   Metadata:
     variant_bitrate : 2198000
   Stream #0:1(nl): Audio: aac (LC), 48000 Hz, stereo, fltp, 90 kb/s (default)
   Metadata:
     comment         : Dutch/Flemish
[Parsed_ass_0 @ 037c9920] Shaper: FriBidi 0.19.4 (SIMPLE)
[Parsed_ass_0 @ 037c9920] Using font provider directwrite
[Parsed_ass_0 @ 037c9920] ass_read_file(C:/Users/Pat/AppData/Roaming/GemistDownloader/ondertiteling.ass): fopen failed
[Parsed_ass_0 @ 037c9920] Could not create a libass track when reading file 'C:/Users/Pat/AppData/Roaming/GemistDownloader/ondertiteling.ass'
[AVFilterGraph @ 03583700] Error initializing filter 'ass' with args 'C\:/Users/Pat/AppData/Roaming/GemistDownloader/ondertiteling.ass'
Error opening filters!
logboek
Werkt het wel als je ondertiteling uitschakelt?
Antwoord
#13
sorry voor laat antwoord
werkt nu wel maar met ondertiteling in .srt dus niet ingebakken
dank u wel
Antwoord


Ga naar locatie:


Gebruikers die dit topic lezen: 1 gast(en)