Welkom gast! Registreren
GemistDownloader 2.9.0.6  - RTL: Problemen met voltooien download
#1
LS

Bij het downloaden van afleveringen van Inspector Morse van RTL komt de download niet tot een einde. Het programma blijft bezig met voltooien. Dit gebeurt met de volgende link:
https://www.rtl.nl/video/add7b51f-072f-3...1eea3f7cc/ 
Dit is nu tweemaal gebeurd, vorige week en vandaag.
Met de vorige versie van 2.9.0.5 gaat het downloaden wel feilloos.
Andere programma's van RTL en ook andere TV kanalen gaan wel goed.
Moet ik iets aan instellingen veranderen?

Vr. Groet van Jobadi
Antwoord
#2
Gebruik je de WIndows-versie van GemistDownloader?
Antwoord
#3
(16 April 2018, 21:03)Webmaster schreef: Gebruik je de WIndows-versie van GemistDownloader?

Ik gebruik de installatieversie onder de groene knop.
Op de website staat verder dat de Systeemvereisten Windowsprogramma's zijn.
Ik gebruik Gemistdownloader op een laptop met een voor zover ik weet een totaal
bijgewerkte Windows 10.

Groet van Jobadi
Antwoord
#4
Gisteren weer geprobeerd met 2.9.0.6 Inspector Morse te downloaden:
https://www.rtl.nl/video/7c87f5f9-19a5-3...0c2e760c2/
Op een gegeven moment komt de mededeling dat het aan het voltooien is.
Daar blijft het bij. Er komt geen eind aan. Ik probeer hetgeen gedownload is toch af te spelen met VLC
Onder in de tijdbalk staat dat er 1:03:.. u af te spelen is. Na deze tijd blijft VLC doospelen.
Uiteindelijk blijkt toch het hele programma aanwezig te zijn (en meer).
Met versie 2.9.0.5 van GemistDownloader komt alles wel tot een goed eind.
Met andere programma's van RTL en andere zenders ondervind ik geen problemen.

Groeten van Jobadi
Antwoord
#5
Kun je een logboek posten?
Antwoord
#6
(23 April 2018, 21:54)Webmaster schreef: Kun je een logboek posten?

Ik probeer het logboek als bijlage bij het antwoord te sturen. Tijdens het plaatsen van het antwoord krijg ik het volgende bericht:
Internal Server Error
The server encountered an internal error or misconfiguration and was unable to complete your request.
Please contact the server administrator at webmaster@helpdeskweb.nl to inform them of the time this error occurred, and the actions you performed just before this error.
More information about this error may be available in the server error log.
Antwoord
#7
Kun je het nog eens proberen? Als het nog niet lukt, kun je de inhoud van het logboek ook in een bericht plakken.
Antwoord
#8
(25 April 2018, 13:49)Webmaster schreef: Kun je het nog eens proberen? Als het nog niet lukt, kun je de inhoud van het logboek ook in een bericht plakken.
Code:
Start (IC1oaWRlX2Jhbm5lciAtdXNlcl9hZ2VudCAiTW96aWxsYS81LjAgKFdpbmRvd3MgTlQgNi4zOyBydjozNi4wKSBHZWNrby8yMDEwMDEwMSBGaXJlZm94LzM2LjAiICAtcmVjb25uZWN0IDEgLXJlY29ubmVjdF9hdF9lb2YgMSAtcmVjb25uZWN0X3N0cmVhbWVkIDEgLXJlY29ubmVjdF9kZWxheV9tYXggMiAtaSAiaHR0cHM6Ly9ydGwtaGxzLWFlcy1yZWxhdGl2ZS5ha2FtYWl6ZWQubmV0L3J0bHhsL3YxNjYvbmV0d29yay9wYy9hZGFwdGl2ZS9jb21wb25lbnRzL3ZpZGVvcmVjb3JkZXIvMzgvMzg4MzIxLzM4ODM1My83Yzg3ZjVmOS0xOWE1LTM0ZjItOTI1Yi0yMDEwYzJlNzYwYzIuc3NtLzdjODdmNWY5LTE5YTUtMzRmMi05MjViLTIwMTBjMmU3NjBjMi1hdWRpbz0xMjU0MzQtdmlkZW89MTAzMDAwMC5tM3U4IiAtdmNvZGVjIG1wZWc0IC12dGFnIFhWSUQgLWZsYWdzICttdjQgLWYgYXZpIC1hY29kZWMgbGlibXAzbGFtZSAteSAtYWMgMiAtdGhyZWFkcyAwIC1xOmEgMCAtcTp2IDEgLXIgMjUgLW1ldGFkYXRhIGVuY29kZWRfYnk9IkdlbWlzdERvd25sb2FkZXIgMi45LjAuNiIgLW1ldGFkYXRhIHRpdGxlPSJJbnNwZWN0b3IgTW9yc2UgPyBEZWFkbHkgc2x1bWJlciIgLW1ldGFkYXRhIGNvbW1lbnQ9Ik1hdHRoZXcgQnJld3N0ZXIsIGRlIGVpZ2VuYWFyIHZhbiBlZW4gcHJpdj9rbGluaWVrLCB3b3JkdCBkb29kIGFhbmdldHJvZmZlbiBpbiB6aWpuIGdhcmFnZS4gSGlqIGlzIGdlc3Rpa3QgaW4gdWl0bGFhdGdhc3NlbiBlbiBkZSBwYXRob2xvb2cgb250ZGVrdCBkYXQgaGlqIHZlcm1vb3JkIGlzLiBCcmV3c3RlciB3ZXJkIGJlZHJlaWdkLCBtYWFyIE1vcnNlIGVuIExld2lzIHppZW4gZGF0IGVyIGlzIGdla25vZWlkIG1ldCBkZSBkcmVpZ2JyaWV2ZW4uIEhvb2ZkdmVyZGFjaHRlIHZhbiBkZSBtb29yZCBpcyBNaWNoYWVsIC4uLiIgLW1ldGFkYXRhIGNvcHlyaWdodD0iKGMpIFJUTDgsIDIwMTgiIC1tZXRhZGF0YSBhdXRob3I9IlJUTDgiICJDOlxVc2Vyc1xFaWdlbmFhclxWaWRlb3NcVWl0emVuZGluZyBHZW1pc3RcSW5zcGVjdG9yIE1vcnNlIC0gRGVhZGx5IHNsdW1iZXIgWzIwMTgwNDE5XS5hdmki)
[https @ 0579dc80] Will reconnect at 55316 error=Error number 0 occurred.
    Last message repeated 947 times
[hls,applehttp @ 0579bfe0] Opening 'https://licenseservice.rtl.nl/aes/GetKey/7c87f5f9-19a5-34f2-925b-2010c2e760c2' for reading
[hls,applehttp @ 0579bfe0] Opening 'crypto+https://rtl-hls-aes-relative.akamaized.net/rtlxl/v166/network/pc/adaptive/components/videorecorder/38/388321/388353/7c87f5f9-19a5-34f2-925b-2010c2e760c2.ssm/7c87f5f9-19a5-34f2-925b-2010c2e760c2-audio=125434-video=1030000-1.ts' for reading
[mpegts @ 174172a0] Invalid timestamps stream=1, pts=903600, dts=910800, size=2382
[mpegts @ 174172a0] Invalid timestamps stream=1, pts=910800, dts=914400, size=3088
[hls,applehttp @ 0579bfe0] Invalid timestamps stream=1, pts=903600, dts=910800, size=2382
[hls,applehttp @ 0579bfe0] Invalid timestamps stream=1, pts=910800, dts=914400, size=3088
[mpegts @ 174172a0] Invalid timestamps stream=1, pts=918000, dts=925200, size=2564
[mpegts @ 174172a0] Invalid timestamps stream=1, pts=925200, dts=928800, size=2368
[hls,applehttp @ 0579bfe0] Invalid timestamps stream=1, pts=918000, dts=925200, size=2564
[hls,applehttp @ 0579bfe0] Invalid timestamps stream=1, pts=925200, dts=928800, size=2368
[mpegts @ 174172a0] Invalid timestamps stream=1, pts=932400, dts=939600, size=2483
[mpegts @ 174172a0] Invalid timestamps stream=1, pts=939600, dts=943200, size=2239
[hls,applehttp @ 0579bfe0] Invalid timestamps stream=1, pts=932400, dts=939600, size=2483
[hls,applehttp @ 0579bfe0] Invalid timestamps stream=1, pts=939600, dts=943200, size=2239
[mpegts @ 174172a0] Invalid timestamps stream=1, pts=946800, dts=950400, size=3296
[mpegts @ 174172a0] Invalid timestamps stream=1, pts=950400, dts=954000, size=3688
[hls,applehttp @ 0579bfe0] Invalid timestamps stream=1, pts=946800, dts=950400, size=3296
[hls,applehttp @ 0579bfe0] Invalid timestamps stream=1, pts=950400, dts=954000, size=3688
[mpegts @ 174172a0] Invalid timestamps stream=1, pts=961200, dts=968400, size=2177
[mpegts @ 174172a0] Invalid timestamps stream=1, pts=968400, dts=972000, size=1739
[hls,applehttp @ 0579bfe0] Invalid timestamps stream=1, pts=961200, dts=968400, size=2177
[hls,applehttp @ 0579bfe0] Invalid timestamps stream=1, pts=968400, dts=972000, size=1739
Input #0, hls,applehttp, from 'https://rtl-hls-aes-relative.akamaized.net/rtlxl/v166/network/pc/adaptive/components/videorecorder/38/388321/388353/7c87f5f9-19a5-34f2-925b-2010c2e760c2.ssm/7c87f5f9-19a5-34f2-925b-2010c2e760c2-audio=125434-video=1030000.m3u8':
  Duration: 1597:13:11.00, start: 10.000000, bitrate: N/A
 Program 0
    Metadata:
      variant_bitrate : 0
    Stream #0:0: Audio: aac (LC) ([15][0][0][0] / 0x000F), 48000 Hz, stereo, fltp
    Metadata:
      variant_bitrate : 0
    Stream #0:1: Video: h264 (Main) ([27][0][0][0] / 0x001B), yuv420p, 704x400 [SAR 100:99 DAR 16:9], 25 tbr, 90k tbn, 50 tbc
    Metadata:
      variant_bitrate : 0
Stream mapping:
  Stream #0:1 -> #0:0 (h264 (native) -> mpeg4 (native))
  Stream #0:0 -> #0:1 (aac (native) -> mp3 (libmp3lame))
Press [q] to stop, [?] for help
Output #0, avi, to 'C:\Users\Eigenaar\Videos\Uitzending Gemist\Inspector Morse - Deadly slumber [20180419].avi':
  Metadata:
    ITCH            : GemistDownloader 2.9.0.6
    INAM            : Inspector Morse – Deadly slumber
    ICMT            : Matthew Brewster, de eigenaar van een privékliniek, wordt dood aangetroffen in zijn garage. Hij is gestikt in uitlaatgassen en de patholoog ontdekt dat hij vermoord is. Brewster werd bedreigd, maar Morse en Lewis zien dat er is geknoeid met de dreigbriev
    ICOP            : (c) RTL8, 2018
    author          : RTL8
    ISFT            : Lavf57.84.100
    Stream #0:0: Video: mpeg4 (XVID / 0x44495658), yuv420p, 704x400 [SAR 100:99 DAR 16:9], q=2-31, 200 kb/s, 25 fps, 25 tbn, 25 tbc
    Metadata:
      variant_bitrate : 0
      encoder         : Lavc57.108.100 mpeg4
    Side data:
      cpb: bitrate max/min/avg: 0/0/200000 buffer size: 0 vbv_delay: -1
    Stream #0:1: Audio: mp3 (libmp3lame) (U[0][0][0] / 0x0055), 48000 Hz, stereo, fltp
    Metadata:
      variant_bitrate : 0
      encoder         : Lavc57.108.100 libmp3lame
frame=    2 fps=0.0 q=1.0 size=      10kB time=00:00:00.12 bitrate= 693.9kbits/s speed=0.157x   
[mpegts @ 174172a0] Invalid timestamps stream=1, pts=979200, dts=986400, size=1531
[mpegts @ 174172a0] Invalid timestamps stream=1, pts=986400, dts=990000, size=1629
[hls,applehttp @ 0579bfe0] Invalid timestamps stream=1, pts=979200, dts=986400, size=1531
[hls,applehttp @ 0579bfe0] Invalid timestamps stream=1, pts=986400, dts=990000, size=1629
[mpegts @ 174172a0] Invalid timestamps stream=1, pts=993600, dts=1000800, size=2010
[mpegts @ 174172a0] Invalid timestamps stream=1, pts=1000800, dts=1004400, size=2063
[hls,applehttp @ 0579bfe0] Invalid timestamps stream=1, pts=993600, dts=1000800, size=2010
[hls,applehttp @ 0579bfe0] Invalid timestamps stream=1, pts=1000800, dts=1004400, size=2063
[mpegts @ 174172a0] Invalid timestamps stream=1, pts=1011600, dts=1018800, size=1950
[mpegts @ 174172a0] Invalid timestamps stream=1, pts=1018800, dts=1022400, size=2767
[hls,applehttp @ 0579bfe0] Invalid timestamps stream=1, pts=1011600, dts=1018800, size=1950
[hls,applehttp @ 0579bfe0] Invalid timestamps stream=1, pts=1018800, dts=1022400, size=2767
[mpegts @ 174172a0] Invalid timestamps stream=1, pts=1026000, dts=1033200, size=2930
[mpegts @ 174172a0] Invalid timestamps stream=1, pts=1033200, dts=1036800, size=2001
[hls,applehttp @ 0579bfe0] Invalid timestamps stream=1, pts=1026000, dts=1033200, size=2930
[hls,applehttp @ 0579bfe0] Invalid timestamps stream=1, pts=1033200, dts=1036800, size=2001
[mpegts @ 174172a0] Invalid timestamps stream=1, pts=1040400, dts=1047600, size=2257
[mpegts @ 174172a0] Invalid timestamps stream=1, pts=1047600, dts=1051200, size=1821
[hls,applehttp @ 0579bfe0] Invalid timestamps stream=1, pts=1040400, dts=1047600, size=2257
[hls,applehttp @ 0579bfe0] Invalid timestamps stream=1, pts=1047600, dts=1051200, size=1821
[mpegts @ 174172a0] Invalid timestamps stream=1, pts=1054800, dts=1062000, size=2358
[mpegts @ 174172a0] Invalid timestamps stream=1, pts=1062000, dts=1065600, size=1962
[hls,applehttp @ 0579bfe0] Invalid timestamps stream=1, pts=1054800, dts=1062000, size=2358
[hls,applehttp @ 0579bfe0] Invalid timestamps stream=1, pts=1062000, dts=1065600, size=1962
[mpegts @ 174172a0] Invalid timestamps stream=1, pts=1069200, dts=1072800, size=2689
[mpegts @ 174172a0] Invalid timestamps stream=1, pts=1072800, dts=1076400, size=2779
[hls,applehttp @ 0579bfe0] Invalid timestamps stream=1, pts=1069200, dts=1072800, size=2689
[hls,applehttp @ 0579bfe0] Invalid timestamps stream=1, pts=1072800, dts=1076400, size=2779
[mpegts @ 174172a0] Invalid timestamps stream=1, pts=1083600, dts=1090800, size=1366
[mpegts @ 174172a0] Invalid timestamps stream=1, pts=1090800, dts=1094400, size=1567
[hls,applehttp @ 0579bfe0] Invalid timestamps stream=1, pts=1083600, dts=1090800, size=1366
[hls,applehttp @ 0579bfe0] Invalid timestamps stream=1, pts=1090800, dts=1094400, size=1567
[mpegts @ 174172a0] Invalid timestamps stream=1, pts=1098000, dts=1105200, size=2100
[mpegts @ 174172a0] Invalid timestamps stream=1, pts=1105200, dts=1108800, size=1887
[hls,applehttp @ 0579bfe0] Invalid timestamps stream=1, pts=1098000, dts=1105200, size=2100
[hls,applehttp @ 0579bfe0] Invalid timestamps stream=1, pts=1105200, dts=1108800, size=1887
[mpegts @ 174172a0] Invalid timestamps stream=1, pts=1112400, dts=1119600, size=1877
[mpegts @ 174172a0] Invalid timestamps stream=1, pts=1119600, dts=1123200, size=1703
[hls,applehttp @ 0579bfe0] Invalid timestamps stream=1, pts=1112400, dts=1119600, size=1877
[hls,applehttp @ 0579bfe0] Invalid timestamps stream=1, pts=1119600, dts=1123200, size=1703
[mpegts @ 174172a0] Invalid timestamps stream=1, pts=1126800, dts=1134000, size=2198
[mpegts @ 174172a0] Invalid timestamps stream=1, pts=1134000, dts=1137600, size=2152
[hls,applehttp @ 0579bfe0] Invalid timestamps stream=1, pts=1126800, dts=1134000, size=2198
[hls,applehttp @ 0579bfe0] Invalid timestamps stream=1, pts=1134000, dts=1137600, size=2152
[mpegts @ 174172a0] Invalid timestamps stream=1, pts=1141200, dts=1148400, size=1205
[mpegts @ 174172a0] Invalid timestamps stream=1, pts=1148400, dts=1152000, size=1445
[hls,applehttp @ 0579bfe0] Invalid timestamps stream=1, pts=1141200, dts=1148400, size=1205
[hls,applehttp @ 0579bfe0] Invalid timestamps stream=1, pts=1148400, dts=1152000, size=1445
[mpegts @ 174172a0] Invalid timestamps stream=1, pts=1155600, dts=1162800, size=1798
[mpegts @ 174172a0] Invalid timestamps stream=1, pts=1162800, dts=1166400, size=1752
[hls,applehttp @ 0579bfe0] Invalid timestamps stream=1, pts=1155600, dts=1162800, size=1798
[hls,applehttp @ 0579bfe0] Invalid timestamps stream=1, pts=1162800, dts=1166400, size=1752
[mpegts @ 174172a0] Invalid timestamps stream=1, pts=1170000, dts=1177200, size=1464
[mpegts @ 174172a0] Invalid timestamps stream=1, pts=1177200, dts=1180800, size=1568
[hls,applehttp @ 0579bfe0] Invalid timestamps stream=1, pts=1170000, dts=1177200, size=1464
[hls,applehttp @ 0579bfe0] Invalid timestamps stream=1, pts=1177200, dts=1180800, size=1568
[mpegts @ 174172a0] Invalid timestamps stream=1, pts=1184400, dts=1191600, size=1775
[mpegts @ 174172a0] Invalid timestamps stream=1, pts=1191600, dts=1195200, size=1757
[hls,applehttp @ 0579bfe0] Invalid timestamps stream=1, pts=1184400, dts=1191600, size=1775
[hls,applehttp @ 0579bfe0] Invalid timestamps stream=1, pts=1191600, dts=1195200, size=1757
[mpegts @ 174172a0] Invalid timestamps stream=1, pts=1198800, dts=1206000, size=2084
[mpegts @ 174172a0] Invalid timestamps stream=1, pts=1206000, dts=1209600, size=1801
[hls,applehttp @ 0579bfe0] Invalid timestamps stream=1, pts=1198800, dts=1206000, size=2084
[hls,applehttp @ 0579bfe0] Invalid timestamps stream=1, pts=1206000, dts=1209600, size=1801
[mpegts @ 174172a0] Invalid timestamps stream=1, pts=1213200, dts=1220400, size=1477
[mpegts @ 174172a0] Invalid timestamps stream=1, pts=1220400, dts=1224000, size=1861
[hls,applehttp @ 0579bfe0] Invalid timestamps stream=1, pts=1213200, dts=1220400, size=1477
[hls,applehttp @ 0579bfe0] Invalid timestamps stream=1, pts=1220400, dts=1224000, size=1861
[mpegts @ 174172a0] Invalid timestamps stream=1, pts=1227600, dts=1234800, size=1834
[mpegts @ 174172a0] Invalid timestamps stream=1, pts=1234800, dts=1238400, size=1695
[hls,applehttp @ 0579bfe0] Invalid timestamps stream=1, pts=1227600, dts=1234800, size=1834
[hls,applehttp @ 0579bfe0] Invalid timestamps stream=1, pts=1234800, dts=1238400, size=1695
[mpegts @ 174172a0] Invalid timestamps stream=1, pts=1242000, dts=1249200, size=1730
frame=   91 fps= 72 q=1.0 size=    1034kB time=00:00:03.86 bitrate=2192.5kbits/s speed=3.06x   
[mpegts @ 174172a0] Invalid timestamps stream=1, pts=1249200, dts=1252800, size=1710
[hls,applehttp @ 0579bfe0] Invalid timestamps stream=1, pts=1242000, dts=1249200, size=1730
[hls,applehttp @ 0579bfe0] Invalid timestamps stream=1, pts=1249200, dts=1252800, size=1710
[mpegts @ 174172a0] Invalid timestamps stream=1, pts=1263600, dts=1270800, size=2683
[mpegts @ 174172a0] Invalid timestamps stream=1, pts=1270800, dts=1274400, size=1959
[hls,applehttp @ 0579bfe0] Invalid timestamps stream=1, pts=1263600, dts=1270800, size=2683
[hls,applehttp @ 0579bfe0] Invalid timestamps stream=1, pts=1270800, dts=1274400, size=1959
[mpegts @ 174172a0] Invalid timestamps stream=1, pts=1278000, dts=1285200, size=2235
[mpegts @ 174172a0] Invalid timestamps stream=1, pts=1285200, dts=1288800, size=2565
[hls,applehttp @ 0579bfe0] Invalid timestamps stream=1, pts=1278000, dts=1285200, size=2235
[hls,applehttp @ 0579bfe0] Invalid timestamps stream=1, pts=1285200, dts=1288800, size=2565
[mpegts @ 174172a0] Invalid timestamps stream=1, pts=1292400, dts=1299600, size=2515
[mpegts @ 174172a0] Invalid timestamps stream=1, pts=1299600, dts=1303200, size=1966
[hls,applehttp @ 0579bfe0] Invalid timestamps stream=1, pts=1292400, dts=1299600, size=2515
[hls,applehttp @ 0579bfe0] Invalid timestamps stream=1, pts=1299600, dts=1303200, size=1966
[mpegts @ 174172a0] Invalid timestamps stream=1, pts=1306800, dts=1314000, size=2257
[mpegts @ 174172a0] Invalid timestamps stream=1, pts=1314000, dts=1317600, size=2831
[hls,applehttp @ 0579bfe0] Invalid timestamps stream=1, pts=1306800, dts=1314000, size=2257
[hls,applehttp @ 0579bfe0] Invalid timestamps stream=1, pts=1314000, dts=1317600, size=2831
[mpegts @ 174172a0] Invalid timestamps stream=1, pts=1321200, dts=1328400, size=1910
[mpegts @ 174172a0] Invalid timestamps stream=1, pts=1328400, dts=1332000, size=1869
[hls,applehttp @ 0579bfe0] Invalid timestamps stream=1, pts=1321200, dts=1328400, size=1910
[hls,applehttp @ 0579bfe0] Invalid timestamps stream=1, pts=1328400, dts=1332000, size=1869
[mpegts @ 174172a0] Invalid timestamps stream=1, pts=1335600, dts=1342800, size=1960
[mpegts @ 174172a0] Invalid timestamps stream=1, pts=1342800, dts=1346400, size=1880
[hls,applehttp @ 0579bfe0] Invalid timestamps stream=1, pts=1335600, dts=1342800, size=1960
[hls,applehttp @ 0579bfe0] Invalid timestamps stream=1, pts=1342800, dts=1346400, size=1880
[mpegts @ 174172a0] Invalid timestamps stream=1, pts=1353600, dts=1360800, size=1944
[mpegts @ 174172a0] Invalid timestamps stream=1, pts=1360800, dts=1364400, size=2001
[hls,applehttp @ 0579bfe0] Invalid timestamps stream=1, pts=1353600, dts=1360800, size=1944
[hls,applehttp @ 0579bfe0] Invalid timestamps stream=1, pts=1360800, dts=1364400, size=2001
[mpegts @ 174172a0] Invalid timestamps stream=1, pts=1371600, dts=1378800, size=2026
[mpegts @ 174172a0] Invalid timestamps stream=1, pts=1378800, dts=1382400, size=1729
[hls,applehttp @ 0579bfe0] Invalid timestamps stream=1, pts=1371600, dts=1378800, size=2026
[hls,applehttp @ 0579bfe0] Invalid timestamps stream=1, pts=1378800, dts=1382400, size=1729
[mpegts @ 174172a0] Invalid timestamps stream=1, pts=1389600, dts=1396800, size=1835
[mpegts @ 174172a0] Invalid timestamps stream=1, pts=1396800, dts=1400400, size=2004
[hls,applehttp @ 0579bfe0] Invalid timestamps stream=1, pts=1389600, dts=1396800, size=1835
[hls,applehttp @ 0579bfe0] Invalid timestamps stream=1, pts=1396800, dts=1400400, size=2004
[mpegts @ 174172a0] Invalid timestamps stream=1, pts=1404000, dts=1411200, size=2530
[mpegts @ 174172a0] Invalid timestamps stream=1, pts=1411200, dts=1414800, size=1693
[hls,applehttp @ 0579bfe0] Invalid timestamps stream=1, pts=1404000, dts=1411200, size=2530
[hls,applehttp @ 0579bfe0] Invalid timestamps stream=1, pts=1411200, dts=1414800, size=1693
[mpegts @ 174172a0] Invalid timestamps stream=1, pts=1418400, dts=1425600, size=1924
[mpegts @ 174172a0] Invalid timestamps stream=1, pts=1425600, dts=1429200, size=1860
[hls,applehttp @ 0579bfe0] Invalid timestamps stream=1, pts=1418400, dts=1425600, size=1924
[hls,applehttp @ 0579bfe0] Invalid timestamps stream=1, pts=1425600, dts=1429200, size=1860
[mpegts @ 174172a0] Invalid timestamps stream=1, pts=1432800, dts=1436400, size=1880
[hls,applehttp @ 0579bfe0] Invalid timestamps stream=1, pts=1432800, dts=1436400, size=1880
[mpegts @ 174172a0] Invalid timestamps stream=1, pts=1443600, dts=1450800, size=1960
[mpegts @ 174172a0] Invalid timestamps stream=1, pts=1450800, dts=1454400, size=2174
[hls,applehttp @ 0579bfe0] Invalid timestamps stream=1, pts=1443600, dts=1450800, size=1960
[hls,applehttp @ 0579bfe0] Invalid timestamps stream=1, pts=1450800, dts=1454400, size=2174
[mpegts @ 174172a0] Invalid timestamps stream=1, pts=1458000, dts=1465200, size=2388
[mpegts @ 174172a0] Invalid timestamps stream=1, pts=1465200, dts=1468800, size=1913
[hls,applehttp @ 0579bfe0] Invalid timestamps stream=1, pts=1458000, dts=1465200, size=2388
[hls,applehttp @ 0579bfe0] Invalid timestamps stream=1, pts=1465200, dts=1468800, size=1913
[mpegts @ 174172a0] Invalid timestamps stream=1, pts=1476000, dts=1483200, size=2082
[mpegts @ 174172a0] Invalid timestamps stream=1, pts=1483200, dts=1486800, size=2088
[hls,applehttp @ 0579bfe0] Invalid timestamps stream=1, pts=1476000, dts=1483200, size=2082
[hls,applehttp @ 0579bfe0] Invalid timestamps stream=1, pts=1483200, dts=1486800, size=2088
[mpegts @ 174172a0] Invalid timestamps stream=1, pts=1490400, dts=1497600, size=4527
[mpegts @ 174172a0] Invalid timestamps stream=1, pts=1497600, dts=1501200, size=3016
[hls,applehttp @ 0579bfe0] Invalid timestamps stream=1, pts=1490400, dts=1497600, size=4527
[hls,applehttp @ 0579bfe0] Invalid timestamps stream=1, pts=1497600, dts=1501200, size=3016
[mpegts @ 174172a0] Invalid timestamps stream=1, pts=1504800, dts=1512000, size=2960
[mpegts @ 174172a0] Invalid timestamps stream=1, pts=1512000, dts=1515600, size=3290
[hls,applehttp @ 0579bfe0] Invalid timestamps stream=1, pts=1504800, dts=1512000, size=2960
[hls,applehttp @ 0579bfe0] Invalid timestamps stream=1, pts=1512000, dts=1515600, size=3290
[mpegts @ 174172a0] Invalid timestamps stream=1, pts=1519200, dts=1526400, size=3164
[mpegts @ 174172a0] Invalid timestamps stream=1, pts=1526400, dts=1530000, size=3272
[hls,applehttp @ 0579bfe0] Invalid timestamps stream=1, pts=1519200, dts=1526400, size=3164
[hls,applehttp @ 0579bfe0] Invalid timestamps stream=1, pts=1526400, dts=1530000, size=3272
[mpegts @ 174172a0] Invalid timestamps stream=1, pts=1533600, dts=1540800, size=3575
[mpegts @ 174172a0] Invalid timestamps stream=1, pts=1540800, dts=1544400, size=3799
[hls,applehttp @ 0579bfe0] Invalid timestamps stream=1, pts=1533600, dts=1540800, size=3575
[hls,applehttp @ 0579bfe0] Invalid timestamps stream=1, pts=1540800, dts=1544400, size=3799
[mpegts @ 174172a0] Invalid timestamps stream=1, pts=1548000, dts=1555200, size=3620
[mpegts @ 174172a0] Invalid timestamps stream=1, pts=1555200, dts=1558800, size=3743
[hls,applehttp @ 0579bfe0] Invalid timestamps stream=1, pts=1548000, dts=1555200, size=3620
[hls,applehttp @ 0579bfe0] Invalid timestamps stream=1, pts=1555200, dts=1558800, size=3743
[mpegts @ 174172a0] Invalid timestamps stream=1, pts=1562400, dts=1569600, size=3707
[mpegts @ 174172a0] Invalid timestamps stream=1, pts=1569600, dts=1573200, size=3091
[hls,applehttp @ 0579bfe0] Invalid timestamps stream=1, pts=1562400, dts=1569600, size=3707
[hls,applehttp @ 0579bfe0] Invalid timestamps stream=1, pts=1569600, dts=1573200, size=3091
[mpegts @ 174172a0] Invalid timestamps stream=1, pts=1576800, dts=1584000, size=3299
[mpegts @ 174172a0] Invalid timestamps stream=1, pts=1584000, dts=1587600, size=3380
[hls,applehttp @ 0579bfe0] Invalid timestamps stream=1, pts=1576800, dts=1584000, size=3299
[hls,applehttp @ 0579bfe0] Invalid timestamps stream=1, pts=1584000, dts=1587600, size=3380
frame=  187 fps=106 q=1.0 size=    2314kB time=00:00:07.68 bitrate=2468.4kbits/s speed=4.35x   
[mpegts @ 174172a0] Invalid timestamps stream=1, pts=1591200, dts=1598400, size=3400
[mpegts @ 174172a0] Invalid timestamps stream=1, pts=1598400, dts=1602000, size=3903
[hls,applehttp @ 0579bfe0] Invalid timestamps stream=1, pts=1591200, dts=1598400, size=3400
[hls,applehttp @ 0579bfe0] Invalid timestamps stream=1, pts=1598400, dts=1602000, size=3903
[mpegts @ 174172a0] Invalid timestamps stream=1, pts=1605600, dts=1612800, size=3820
[mpegts @ 174172a0] Invalid timestamps stream=1, pts=1612800, dts=1616400, size=3918
[hls,applehttp @ 0579bfe0] Invalid timestamps stream=1, pts=1605600, dts=1612800, size=3820
[hls,applehttp @ 0579bfe0] Invalid timestamps stream=1, pts=1612800, dts=1616400, size=3918
[mpegts @ 174172a0] Invalid timestamps stream=1, pts=1623600, dts=1627200, size=4060
[hls,applehttp @ 0579bfe0] Invalid timestamps stream=1, pts=1623600, dts=1627200, size=4060
[mpegts @ 174172a0] Invalid timestamps stream=1, pts=1630800, dts=1638000, size=4442
[mpegts @ 174172a0] Invalid timestamps stream=1, pts=1638000, dts=1641600, size=4626
[hls,applehttp @ 0579bfe0] Invalid timestamps stream=1, pts=1630800, dts=1638000, size=4442
[hls,applehttp @ 0579bfe0] Invalid timestamps stream=1, pts=1638000, dts=1641600, size=4626
[mpegts @ 174172a0] Invalid timestamps stream=1, pts=1645200, dts=1652400, size=4872
[mpegts @ 174172a0] Invalid timestamps stream=1, pts=1652400, dts=1656000, size=4672
[hls,applehttp @ 0579bfe0] Invalid timestamps stream=1, pts=1645200, dts=1652400, size=4872
[hls,applehttp @ 0579bfe0] Invalid timestamps stream=1, pts=1652400, dts=1656000, size=4672
[mpegts @ 174172a0] Invalid timestamps stream=1, pts=1659600, dts=1666800, size=4869
[mpegts @ 174172a0] Invalid timestamps stream=1, pts=1666800, dts=1670400, size=4478
[hls,applehttp @ 0579bfe0] Invalid timestamps stream=1, pts=1659600, dts=1666800, size=4869
[hls,applehttp @ 0579bfe0] Invalid timestamps stream=1, pts=1666800, dts=1670400, size=4478
[mpegts @ 174172a0] Invalid timestamps stream=1, pts=1674000, dts=1681200, size=5545
[mpegts @ 174172a0] Invalid timestamps stream=1, pts=1681200, dts=1684800, size=4282
[hls,applehttp @ 0579bfe0] Invalid timestamps stream=1, pts=1674000, dts=1681200, size=5545
[hls,applehttp @ 0579bfe0] Invalid timestamps stream=1, pts=1681200, dts=1684800, size=4282
[mpegts @ 174172a0] Invalid timestamps stream=1, pts=1688400, dts=1695600, size=3994
[mpegts @ 174172a0] Invalid timestamps stream=1, pts=1695600, dts=1699200, size=3417
[hls,applehttp @ 0579bfe0] Invalid timestamps stream=1, pts=1688400, dts=1695600, size=3994
[hls,applehttp @ 0579bfe0] Invalid timestamps stream=1, pts=1695600, dts=1699200, size=3417
[mpegts @ 174172a0] Invalid timestamps stream=1, pts=1702800, dts=1710000, size=3540
[mpegts @ 174172a0] Invalid timestamps stream=1, pts=1710000, dts=1713600, size=3417
[hls,applehttp @ 0579bfe0] Invalid timestamps stream=1, pts=1702800, dts=1710000, size=3540
[hls,applehttp @ 0579bfe0] Invalid timestamps stream=1, pts=1710000, dts=1713600, size=3417
[mpegts @ 174172a0] Invalid timestamps stream=1, pts=1717200, dts=1724400, size=3753
[mpegts @ 174172a0] Invalid timestamps stream=1, pts=1724400, dts=1728000, size=3621
[hls,applehttp @ 0579bfe0] Invalid timestamps stream=1, pts=1717200, dts=1724400, size=3753
[hls,applehttp @ 0579bfe0] Invalid timestamps stream=1, pts=1724400, dts=1728000, size=3621
[mpegts @ 174172a0] Invalid timestamps stream=1, pts=1731600, dts=1738800, size=3441
[mpegts @ 174172a0] Invalid timestamps stream=1, pts=1738800, dts=1742400, size=3331
[hls,applehttp @ 0579bfe0] Invalid timestamps stream=1, pts=1731600, dts=1738800, size=3441
[hls,applehttp @ 0579bfe0] Invalid timestamps stream=1, pts=1738800, dts=1742400, size=3331
[mpegts @ 174172a0] Invalid timestamps stream=1, pts=1746000, dts=1753200, size=3612
[mpegts @ 174172a0] Invalid timestamps stream=1, pts=1753200, dts=1756800, size=3601
[hls,applehttp @ 0579bfe0] Invalid timestamps stream=1, pts=1746000, dts=1753200, size=3612
[hls,applehttp @ 0579bfe0] Invalid timestamps stream=1, pts=1753200, dts=1756800, size=3601
[mpegts @ 174172a0] Invalid timestamps stream=1, pts=1760400, dts=1767600, size=3429
[mpegts @ 174172a0] Invalid timestamps stream=1, pts=1767600, dts=1771200, size=3299
[hls,applehttp @ 0579bfe0] Invalid timestamps stream=1, pts=1760400, dts=1767600, size=3429
[hls,applehttp @ 0579bfe0] Invalid timestamps stream=1, pts=1767600, dts=1771200, size=3299
[mpegts @ 174172a0] Invalid timestamps stream=1, pts=1774800, dts=1782000, size=3316
[mpegts @ 174172a0] Invalid timestamps stream=1, pts=1782000, dts=1785600, size=2977
[hls,applehttp @ 0579bfe0] Invalid timestamps stream=1, pts=1774800, dts=1782000, size=3316
[hls,applehttp @ 0579bfe0] Invalid timestamps stream=1, pts=1782000, dts=1785600, size=2977
[mpegts @ 174172a0] Invalid timestamps stream=1, pts=1789200, dts=1792800, size=3745
[hls,applehttp @ 0579bfe0] Opening 'crypto+https://rtl-hls-aes-relative.akamaized.net/rtlxl/v166/network/pc/adaptive/components/videorecorder/38/388321/388353/7c87f5f9-19a5-34f2-925b-2010c2e760c2.ssm/7c87f5f9-19a5-34f2-925b-2010c2e760c2-audio=125434-video=1030000-2.ts' for reading
[mpegts @ 174172a0] Invalid timestamps stream=1, pts=1792800, dts=1796400, size=2917

Zo gaat het heel lang door tot op een gegeven moment het volgende verschijnt:

[mpegts @ 174172a0] Invalid timestamps stream=1, pts=546217200, dts=546220800, size=65
[hls,applehttp @ 0579bfe0] Invalid timestamps stream=1, pts=546210000, dts=546217200, size=58
[hls,applehttp @ 0579bfe0] Invalid timestamps stream=1, pts=546217200, dts=546220800, size=65
[mpegts @ 174172a0] Invalid timestamps stream=1, pts=546224400, dts=546228000, size=139
[hls,applehttp @ 0579bfe0] Opening 'crypto+https://rtl-hls-aes-relative.akamaized.net/rtlxl/v166/network/pc/adaptive/components/videorecorder/38/388321/388353/7c87f5f9-19a5-34f2-925b-2010c2e760c2.ssm/7c87f5f9-19a5-34f2-925b-2010c2e760c2-audio=125434-video=1030000-1.ts' for reading
[mpegts @ 174172a0] Invalid timestamps stream=1, pts=546228000, dts=546231600, size=48
[hls,applehttp @ 0579bfe0] Invalid timestamps stream=1, pts=546224400, dts=546228000, size=139
[hls,applehttp @ 0579bfe0] Invalid timestamps stream=1, pts=546228000, dts=546231600, size=48
[mpegts @ 174172a0] DTS 900000 < 546231600 out of order
[mpegts @ 174172a0] Invalid timestamps stream=1, pts=903600, dts=910800, size=2382
[libmp3lame @ 19d48c60] Queue input is backward in time
[mpegts @ 174172a0] Invalid timestamps stream=1, pts=910800, dts=914400, size=3088
[hls,applehttp @ 0579bfe0] Invalid timestamps stream=1, pts=903600, dts=910800, size=2382
[hls,applehttp @ 0579bfe0] Invalid timestamps stream=1, pts=910800, dts=914400, size=3088
frame=151481 fps=176 q=1.0 size= 1670174kB time=01:40:59.25 bitrate=2258.0kbits/s speed=7.03x   
[mpegts @ 174172a0] Invalid timestamps stream=1, pts=918000, dts=925200, size=2564
[mpegts @ 174172a0] Invalid timestamps stream=1, pts=925200, dts=928800, size=2368
[hls,applehttp @ 0579bfe0] Invalid timestamps stream=1, pts=918000, dts=925200, size=2564
[avi @ 12502040] Non-monotonous DTS in output stream 0:1; previous: 252470, current: 1; changing to 252471. This may result in incorrect timestamps in the output file.
[avi @ 12502040] Non-monotonous DTS in output stream 0:1; previous: 252471, current: 2; changing to 252472. This may result in incorrect timestamps in the output file.
[avi @ 12502040] Non-monotonous DTS in output stream 0:1; previous: 252472, current: 3; changing to 252473. This may result in incorrect timestamps in the output file.
[avi @ 12502040] Non-monotonous DTS in output stream 0:1; previous: 252473, current: 4; changing to 252474. This may result in incorrect timestamps in the output file.
[avi @ 12502040] Non-monotonous DTS in output stream 0:1; previous: 252474, current: 5; changing to 252475. This may result in incorrect timestamps in the output file.
[avi @ 12502040] Non-monotonous DTS in output stream 0:1; previous: 252475, current: 6; changing to 252476. This may result in incorrect timestamps in the output file.
[hls,applehttp @ 0579bfe0] Invalid timestamps stream=1, pts=925200, dts=928800, size=2368
[mpegts @ 174172a0] Invalid timestamps stream=1, pts=932400, dts=939600, size=2483
[mpegts @ 174172a0] Invalid timestamps stream=1, pts=939600, dts=943200, size=2239
[hls,applehttp @ 0579bfe0] Invalid timestamps stream=1, pts=932400, dts=939600, size=2483
[avi @ 12502040] Non-monotonous DTS in output stream 0:1; previous: 252476, current: 7; changing to 252477. This may result in incorrect timestamps in the output file.
[avi @ 12502040] Non-monotonous DTS in output stream 0:1; previous: 252477, current: 8; changing to 252478. This may result in incorrect timestamps in the output file.
[avi @ 12502040] Non-monotonous DTS in output stream 0:1; previous: 252478, current: 9; changing to 252479. This may result in incorrect timestamps in the output file.
[avi @ 12502040] Non-monotonous DTS in output stream 0:1; previous: 252479, current: 10; changing to 252480. This may result in incorrect timestamps in the output file.
[avi @ 12502040] Non-monotonous DTS in output stream 0:1; previous: 252480, current: 11; changing to 252481. This may result in incorrect timestamps in the output file.
[avi @ 12502040] Non-monotonous DTS in output stream 0:1; previous: 252481, current: 12; changing to 252482. This may result in incorrect timestamps in the output file.
[avi @ 12502040] Non-monotonous DTS in output stream 0:1; previous: 252482, current: 13; changing to 252483. This may result in incorrect timestamps in the output file.
[avi @ 12502040] Non-monotonous DTS in output stream 0:1; previous: 252483, current: 14; changing to 252484. This may result in incorrect timestamps in the output file.
[hls,applehttp @ 0579bfe0] Invalid timestamps stream=1, pts=939600, dts=943200, size=2239
[mpegts @ 174172a0] Invalid timestamps stream=1, pts=946800, dts=950400, size=3296
[mpegts @ 174172a0] Invalid timestamps stream=1, pts=950400, dts=954000, size=3688
[hls,applehttp @ 0579bfe0] Invalid timestamps stream=1, pts=946800, dts=950400, size=3296
[hls,applehttp @ 0579bfe0] Invalid timestamps stream=1, pts=950400, dts=954000, size=3688
[avi @ 12502040] Non-monotonous DTS in output stream 0:1; previous: 252484, current: 15; changing to 252485. This may result in incorrect timestamps in the output file.
[avi @ 12502040] Non-monotonous DTS in output stream 0:1; previous: 252485, current: 16; changing to 252486. This may result in incorrect timestamps in the output file.
[avi @ 12502040] Non-monotonous DTS in output stream 0:1; previous: 252486, current: 17; changing to 252487. This may result in incorrect timestamps in the output file.
[avi @ 12502040] Non-monotonous DTS in output stream 0:1; previous: 252487, current: 18; changing to 252488. This may result in incorrect timestamps in the output file.
[avi @ 12502040] Non-monotonous DTS in output stream 0:1; previous: 252488, current: 19; changing to 252489. This may result in incorrect timestamps in the output file.
[avi @ 12502040] Non-monotonous DTS in output stream 0:1; previous: 252489, current: 20; changing to 252490. This may result in incorrect timestamps in the output file.

Dit gaat ook weer eindeloos bijna door tot het eind:

ts=8917200, dts=8920800, size=1839
[hls,applehttp @ 0579bfe0] Invalid timestamps stream=1, pts=8910000, dts=8917200, size=1752
[avi @ 12502040] Non-monotonous DTS in output stream 0:1; previous: 760692, current: 3699; changing to 760693. This may result in incorrect timestamps in the output file.
[avi @ 12502040] Non-monotonous DTS in output stream 0:1; previous: 760693, current: 3700; changing to 760694. This may result in incorrect timestamps in the output file.
[avi @ 12502040] Non-monotonous DTS in output stream 0:1; previous: 760694, current: 3701; changing to 760695. This may result in incorrect timestamps in the output file.
[avi @ 12502040] Non-monotonous DTS in output stream 0:1; previous: 760695, current: 3702; changing to 760696. This may result in incorrect timestamps in the output file.
[avi @ 12502040] Non-monotonous DTS in output stream 0:1; previous: 760696, current: 3703; changing to 760697. This may result in incorrect timestamps in the output file.
[avi @ 12502040] Non-monotonous DTS in output stream 0:1; previous: 760697, current: 3704; changing to 760698. This may result in incorrect timestamps in the output file.
[avi @ 12502040] Non-monotonous DTS in output stream 0:1; previous: 760698, current: 3705; changing to 760699. This may result in incorrect timestamps in the output file.
[avi @ 12502040] Non-monotonous DTS in output stream 0:1; previous: 760699, current: 3706; changing to 760700. This may result in incorrect timestamps in the output file.
[hls,applehttp @ 0579bfe0] Invalid timestamps stream=1, pts=8917200, dts=8920800, size=1839
[mpegts @ 174172a0] Invalid timestamps stream=1, pts=8924400, dts=8931600, size=1688
[mpegts @ 174172a0] Invalid timestamps stream=1, pts=8931600, dts=8935200, size=1539
[hls,applehttp @ 0579bfe0] Invalid timestamps stream=1, pts=8924400, dts=8931600, size=1688
[hls,applehttp @ 0579bfe0] Invalid timestamps stream=1, pts=8931600, dts=8935200, size=1539
[avi @ 12502040] Non-monotonous DTS in output stream 0:1; previous: 760700, current: 3707; changing to 760701. This may result in incorrect timestamps in the output file.
[avi @ 12502040] Non-monotonous DTS in output stream 0:1; previous: 760701, current: 3708; changing to 760702. This may result in incorrect timestamps in the output file.
[avi @ 12502040] Non-monotonous DTS in output stream 0:1; previous: 760702, current: 3709; changing to 760703. This may result in incorrect timestamps in the output file.
[avi @ 12502040] Non-monotonous DTS in output stream 0:1; previous: 760703, current: 3710; changing to 760704. This may result in incorrect timestamps in the output file.
[avi @ 12502040] Non-monotonous DTS in output stream 0:1; previous: 760704, current: 3711; changing to 760705. This may result in incorrect timestamps in the output file.
[avi @ 12502040] Non-monotonous DTS in output stream 0:1; previous: 760705, current: 3712; changing to 760706. This may result in incorrect timestamps in the output file.
[avi @ 12502040] Non-monotonous DTS in output stream 0:1; previous: 760706, current: 3713; changing to 760707. This may result in incorrect timestamps in the output file.
[avi @ 12502040] Non-monotonous DTS in output stream 0:1; previous: 760707, current: 3714; changing to 760708. This may result in incorrect timestamps in the output file.
[avi @ 12502040] Non-monotonous DTS in output stream 0:1; previous: 760708, current: 3715; changing to 760709. This may result in incorrect timestamps in the output file.
[avi @ 12502040] Non-monotonous DTS in output stream 0:1; previous: 760709, current: 3716; changing to 760710. This may result in incorrect timestamps in the output file.
frame=151483 fps= 59 q=1.0 Lsize= 1975640kB time=05:04:17.06 bitrate= 886.5kbits/s dup=0 drop=304940 speed=7.12x   
video:1514072kB audio:443286kB subtitle:0kB other streams:0kB global headers:0kB muxing overhead: 0.934019%
Het programma was nog steeds bezig met voltooien (zeker een kwartier), toen ik het downloaden annuleerde.

Ik hoop dat bovenstaande voldoende informatie geeft om iets zinvols uit te halen.

N.B. het logboek invoegen als bijlage lukte niet. Ook het totale logboek plakken lukte niet.

Vr. Groet, Jobadi
Antwoord


Ga naar locatie:


Gebruikers die dit topic lezen: 1 gast(en)