Welkom gast! Registreren
GemistDownloader 2.9.0.7  - Downloaden RTLXL mislukt
#11
Kun je een logboek geven voor een download die niet lukt?
Antwoord
#12
Hoi Webmaster,

Ik weet niet of je vraag aan mij was gericht, maar mijn logboek staat al in bericht nr. 5
Antwoord
#13
Beste Webmaster

Ik krijg de melding "Er is geen video op deze pagina gevonden." als deze video probeer te downloaden.

https://www.rtl.nl/video/9070a276-545e-3...e5f8e4711/
Antwoord
#14
Hierbij een logboek van mislukte download

Code:
Start (IC1oaWRlX2Jhbm5lciAtdXNlcl9hZ2VudCAiTW96aWxsYS81LjAgKFdpbmRvd3MgTlQgNi4xOyBXT1c2NDsgcnY6NDAuMCkgR2Vja28vMjAxMDAxMDEgRmlyZWZveC80MC4xIiAgLWkgImh0dHBzOi8vbWFuaWZlc3QyLnVzLnJ0bC5ubC8xMC92MTY2L2Flcy9hZGFwdGl2ZS9jb21wb25lbnRzL3ZpZGVvcmVjb3JkZXIvMzcvMzc5NDc2LzM4NDAzOC9hNjc5NWNkMi01ZTE1LTNjZDEtYTU1Ni04NDE3ZjFkN2Q0OGEuc3NtL2E2Nzk1Y2QyLTVlMTUtM2NkMS1hNTU2LTg0MTdmMWQ3ZDQ4YS5pc20vYTY3OTVjZDItNWUxNS0zY2QxLWE1NTYtODQxN2YxZDdkNDhhLWF1ZGlvPTEyNTQzNi12aWRlbz0yMzIxMDAwLm0zdTgiIC1pICJDOlxVc2Vyc1xPbmUgUmVkXEFwcERhdGFcUm9hbWluZ1xHZW1pc3REb3dubG9hZGVyXG1ldGFkYXRhLm1ldGEiIC1tYXBfY2hhcHRlcnMgMSAtYyBjb3B5IC15IC1hYyAyIC10aHJlYWRzIDAgLWJzZjphIGFhY19hZHRzdG9hc2MgICAtciAyNSAtbWV0YWRhdGEgZW5jb2RlZF9ieT0iR2VtaXN0RG93bmxvYWRlciAyLjkuMC43IiAtbWV0YWRhdGEgdGl0bGU9IkRlZXAgd2F0ZXJzIiAtbWV0YWRhdGEgeWVhcj0iMjAxOCIgLW1ldGFkYXRhIGNvcHlyaWdodD0iKGMpIFJUTDgsIDIwMTgiIC1tZXRhZGF0YSBkZXNjcmlwdGlvbj0iT3AgZGUgdW5pdmVyc2l0ZWl0c2NhbXB1cyByYWFrdCBlZW4gc3R1ZGVudGUgZXJuc3RpZyBnZXdvbmQgYWxzIHplIHZhbiBkZSB0cmFwIHdvcmR0IGdlZHV3ZC4gRGUgdmVyZGVua2luZyB2YWx0IG9wIGRlIHByb2Zlc3NvciBwc3ljaG9sb2dpZSwgbWFhciBGcm9zdCBvbmRlcnpvZWt0IG9vayBlZW4gYW5kZXJlIG1vZ2VsaWpraGVpZC4gVHdlZSBqYWFyIGVlcmRlciBrd2FtIG5hbWVsaWprIGVlbiBhbmRlcmUgc3R1ZGVudGUgb25kZXIgdmVyZGFjaHRlIG9tc3RhbmRpZ2hlZGVuIG9tIGhldCBsZXZlbi4gRnJvc3QgaG91Li4uIiAtbWV0YWRhdGEgc2hvdz0iQSBUb3VjaCBPZiBGcm9zdCIgLW1ldGFkYXRhIG5ldHdvcms9IlJUTDgiIC1tZXRhZGF0YSBtZWRpYV90eXBlPTEwIC1tZXRhZGF0YSBzZWFzb25fbnVtYmVyPTQgLW1ldGFkYXRhIGVwaXNvZGVfaWQ9IjUiIC1tZXRhZGF0YSBlcGlzb2RlX3Nob3J0PTUgIlo6XDIgLSBEZXRlY3RpdmVzXEZyb3N0XEEgVG91Y2ggT2YgRnJvc3QgLSBEZWVwIHdhdGVycyBbMjAxODA5MTldLm1wNCI)

[hls,applehttp @ 00a55200] Opening 'https://licenseservice.rtl.nl/aes/GetKey/a6795cd2-5e15-3cd1-a556-8417f1d7d48a' for reading
[hls,applehttp @ 00a55200] Opening 'crypto+https://rtl-hls-aes-longtail.akamaized.net/10/v166/aes/adaptive/components/videorecorder/37/379476/384038/a6795cd2-5e15-3cd1-a556-8417f1d7d48a.ssm/a6795cd2-5e15-3cd1-a556-8417f1d7d48a.ism/a6795cd2-5e15-3cd1-a556-8417f1d7d48a-audio=125436-video=2321000-583.ts' for reading
[mpegts @ 081362c0] Invalid timestamps stream=1, pts=524703600, dts=524710800, size=5151
[mpegts @ 081362c0] Invalid timestamps stream=1, pts=524710800, dts=524714400, size=5465
[hls,applehttp @ 00a55200] Invalid timestamps stream=1, pts=524703600, dts=524710800, size=5151
[hls,applehttp @ 00a55200] Invalid timestamps stream=1, pts=524710800, dts=524714400, size=5465
[mpegts @ 081362c0] Invalid timestamps stream=1, pts=524718000, dts=524725200, size=5858
[mpegts @ 081362c0] Invalid timestamps stream=1, pts=524725200, dts=524728800, size=5985
[hls,applehttp @ 00a55200] Invalid timestamps stream=1, pts=524718000, dts=524725200, size=5858
[hls,applehttp @ 00a55200] Invalid timestamps stream=1, pts=524725200, dts=524728800, size=5985
[mpegts @ 081362c0] Invalid timestamps stream=1, pts=524732400, dts=524739600, size=5725
[mpegts @ 081362c0] Invalid timestamps stream=1, pts=524739600, dts=524743200, size=6452
[hls,applehttp @ 00a55200] Invalid timestamps stream=1, pts=524732400, dts=524739600, size=5725
[hls,applehttp @ 00a55200] Invalid timestamps stream=1, pts=524739600, dts=524743200, size=6452
[mpegts @ 081362c0] Invalid timestamps stream=1, pts=524746800, dts=524754000, size=6852
[mpegts @ 081362c0] Invalid timestamps stream=1, pts=524754000, dts=524757600, size=7214
[hls,applehttp @ 00a55200] Invalid timestamps stream=1, pts=524746800, dts=524754000, size=6852
[hls,applehttp @ 00a55200] Invalid timestamps stream=1, pts=524754000, dts=524757600, size=7214
[mpegts @ 081362c0] Invalid timestamps stream=1, pts=524761200, dts=524768400, size=6206
[mpegts @ 081362c0] Invalid timestamps stream=1, pts=524768400, dts=524772000, size=7987
[hls,applehttp @ 00a55200] Invalid timestamps stream=1, pts=524761200, dts=524768400, size=6206
[hls,applehttp @ 00a55200] Invalid timestamps stream=1, pts=524768400, dts=524772000, size=7987
Input #0, hls,applehttp, from 'https://manifest2.us.rtl.nl/10/v166/aes/adaptive/components/videorecorder/37/379476/384038/a6795cd2-5e15-3cd1-a556-8417f1d7d48a.ssm/a6795cd2-5e15-3cd1-a556-8417f1d7d48a.ism/a6795cd2-5e15-3cd1-a556-8417f1d7d48a-audio=125436-video=2321000.m3u8':
 Duration: N/A, start: 5830.000000, bitrate: N/A
 Program 0
   Metadata:
     variant_bitrate : 0
   Stream #0:0: Audio: aac (LC) ([15][0][0][0] / 0x000F), 48000 Hz, stereo, fltp
   Metadata:
     variant_bitrate : 0
   Stream #0:1: Video: h264 (High) ([27][0][0][0] / 0x001B), yuv420p, 912x512 [SAR 1:1 DAR 57:32], 25 fps, 25 tbr, 90k tbn, 50 tbc
   Metadata:
     variant_bitrate : 0
Input #1, ffmetadata, from 'C:\Users\One Red\AppData\Roaming\GemistDownloader\metadata.meta':
 Duration: 01:40:20.64, start: 0.000000, bitrate: N/A
   Chapter #1:0: start 0.000000, end 752.840000
   Metadata:
     title           : Blok 1
   Chapter #1:1: start 752.840000, end 2180.080000
   Metadata:
     title           : Blok 2
   Chapter #1:2: start 2180.080000, end 2978.520000
   Metadata:
     title           : Blok 3
   Chapter #1:3: start 2978.520000, end 5058.520000
   Metadata:
     title           : Blok 4
   Chapter #1:4: start 5058.520000, end 6020.640000
   Metadata:
     title           : Blok 5
Output #0, mp4, to 'Z:\2 - Detectives\Frost\A Touch Of Frost - Deep waters [20180919].mp4':
 Metadata:
   encoded_by      : GemistDownloader 2.9.0.7
   title           : Deep waters
   year            : 2018
   copyright       : (c) RTL8, 2018
   description     : Op de universiteitscampus raakt een studente ernstig gewond als ze van de trap wordt geduwd. De verdenking valt op de professor psychologie, maar Frost onderzoekt ook een andere mogelijkheid. Twee jaar eerder kwam namelijk een andere studente onder verdac
   show            : A Touch Of Frost
   network         : RTL8
   media_type      : 10
   season_number   : 4
   episode_id      : 5
   episode_short   : 5
   encoder         : Lavf58.12.100
   Chapter #0:0: start 0.000000, end 752.840000
   Metadata:
     title           : Blok 1
   Chapter #0:1: start 752.840000, end 2180.080000
   Metadata:
     title           : Blok 2
   Chapter #0:2: start 2180.080000, end 2978.520000
   Metadata:
     title           : Blok 3
   Chapter #0:3: start 2978.520000, end 5058.520000
   Metadata:
     title           : Blok 4
   Chapter #0:4: start 5058.520000, end 6020.640000
   Metadata:
     title           : Blok 5
   Stream #0:0: Video: h264 (High) (avc1 / 0x31637661), yuv420p, 912x512 [SAR 1:1 DAR 57:32], q=2-31, 25 fps, 25 tbr, 12800 tbn, 25 tbc
   Metadata:
     variant_bitrate : 0
   Stream #0:1: Audio: aac (LC) (mp4a / 0x6134706D), 48000 Hz, stereo, fltp
   Metadata:
     variant_bitrate : 0
Stream mapping:
 Stream #0:1 -> #0:0 (copy)
 Stream #0:0 -> #0:1 (copy)
Press [q] to stop, [?] for help
[mp4 @ 084f5ec0] Invalid DTS: 1536 PTS: 512 in output stream 0:0, replacing by guess
[mp4 @ 084f5ec0] Invalid DTS: 2048 PTS: 1536 in output stream 0:0, replacing by guess
[mp4 @ 084f5ec0] Invalid DTS: 3584 PTS: 2560 in output stream 0:0, replacing by guess
[mp4 @ 084f5ec0] Invalid DTS: 4096 PTS: 3584 in output stream 0:0, replacing by guess
[mp4 @ 084f5ec0] Invalid DTS: 5632 PTS: 4608 in output stream 0:0, replacing by guess
[mp4 @ 084f5ec0] Invalid DTS: 6144 PTS: 5632 in output stream 0:0, replacing by guess
[mp4 @ 084f5ec0] Invalid DTS: 7680 PTS: 6656 in output stream 0:0, replacing by guess
[mp4 @ 084f5ec0] Invalid DTS: 8192 PTS: 7680 in output stream 0:0, replacing by guess
[mp4 @ 084f5ec0] Invalid DTS: 9728 PTS: 8704 in output stream 0:0, replacing by guess
[mp4 @ 084f5ec0] Invalid DTS: 10240 PTS: 9728 in output stream 0:0, replacing by guess
[mpegts @ 081362c0] Invalid timestamps stream=1, pts=524775600, dts=524782800, size=6304
[mpegts @ 081362c0] Invalid timestamps stream=1, pts=524782800, dts=524786400, size=7400
[hls,applehttp @ 00a55200] Invalid timestamps stream=1, pts=524775600, dts=524782800, size=6304
[mp4 @ 084f5ec0] Invalid DTS: 11776 PTS: 10752 in output stream 0:0, replacing by guess
[hls,applehttp @ 00a55200] Invalid timestamps stream=1, pts=524782800, dts=524786400, size=7400
[mpegts @ 081362c0] Invalid timestamps stream=1, pts=524790000, dts=524797200, size=5978
[mp4 @ 084f5ec0] Invalid DTS: 12288 PTS: 11776 in output stream 0:0, replacing by guess
[mpegts @ 081362c0] Invalid timestamps stream=1, pts=524797200, dts=524800800, size=7666
[hls,applehttp @ 00a55200] Invalid timestamps stream=1, pts=524790000, dts=524797200, size=5978
[hls,applehttp @ 00a55200] Invalid timestamps stream=1, pts=524797200, dts=524800800, size=7666
[mp4 @ 084f5ec0] Invalid DTS: 13824 PTS: 12800 in output stream 0:0, replacing by guess
[mp4 @ 084f5ec0] Invalid DTS: 14336 PTS: 13824 in output stream 0:0, replacing by guess
[mpegts @ 081362c0] Invalid timestamps stream=1, pts=524804400, dts=524811600, size=6359
[mpegts @ 081362c0] Invalid timestamps stream=1, pts=524811600, dts=524815200, size=6260
[hls,applehttp @ 00a55200] Invalid timestamps stream=1, pts=524804400, dts=524811600, size=6359
[hls,applehttp @ 00a55200] Invalid timestamps stream=1, pts=524811600, dts=524815200, size=6260
[mp4 @ 084f5ec0] Invalid DTS: 15872 PTS: 14848 in output stream 0:0, replacing by guess
[mp4 @ 084f5ec0] Invalid DTS: 16384 PTS: 15872 in output stream 0:0, replacing by guess
[mpegts @ 081362c0] Invalid timestamps stream=1, pts=524818800, dts=524826000, size=5268
[mpegts @ 081362c0] Invalid timestamps stream=1, pts=524826000, dts=524829600, size=6393
[hls,applehttp @ 00a55200] Invalid timestamps stream=1, pts=524818800, dts=524826000, size=5268
[mp4 @ 084f5ec0] Invalid DTS: 17920 PTS: 16896 in output stream 0:0, replacing by guess
[hls,applehttp @ 00a55200] Invalid timestamps stream=1, pts=524826000, dts=524829600, size=6393
[mp4 @ 084f5ec0] Invalid DTS: 18432 PTS: 17920 in output stream 0:0, replacing by guess
[mpegts @ 081362c0] Invalid timestamps stream=1, pts=524833200, dts=524840400, size=5698
[mpegts @ 081362c0] Invalid timestamps stream=1, pts=524840400, dts=524844000, size=6960
[hls,applehttp @ 00a55200] Invalid timestamps stream=1, pts=524833200, dts=524840400, size=5698
[mp4 @ 084f5ec0] Invalid DTS: 19968 PTS: 18944 in output stream 0:0, replacing by guess
[hls,applehttp @ 00a55200] Invalid timestamps stream=1, pts=524840400, dts=524844000, size=6960
[mp4 @ 084f5ec0] Invalid DTS: 20480 PTS: 19968 in output stream 0:0, replacing by guess
[mpegts @ 081362c0] Invalid timestamps stream=1, pts=524847600, dts=524854800, size=5779
[mpegts @ 081362c0] Invalid timestamps stream=1, pts=524854800, dts=524858400, size=5711
[hls,applehttp @ 00a55200] Invalid timestamps stream=1, pts=524847600, dts=524854800, size=5779
[mp4 @ 084f5ec0] Invalid DTS: 22016 PTS: 20992 in output stream 0:0, replacing by guess
[hls,applehttp @ 00a55200] Invalid timestamps stream=1, pts=524854800, dts=524858400, size=5711
[mp4 @ 084f5ec0] Invalid DTS: 22528 PTS: 22016 in output stream 0:0, replacing by guess
frame=   46 fps= 32 q=-1.0 size=     512kB time=00:00:01.80 bitrate=2330.7kbits/s speed=1.26x    
[mpegts @ 081362c0] Invalid timestamps stream=1, pts=524862000, dts=524869200, size=10595
[mpegts @ 081362c0] Invalid timestamps stream=1, pts=524869200, dts=524872800, size=4279
[hls,applehttp @ 00a55200] Invalid timestamps stream=1, pts=524862000, dts=524869200, size=10595
[hls,applehttp @ 00a55200] Invalid timestamps stream=1, pts=524869200, dts=524872800, size=4279
[mp4 @ 084f5ec0] Invalid DTS: 24064 PTS: 23040 in output stream 0:0, replacing by guess
[mp4 @ 084f5ec0] Invalid DTS: 24576 PTS: 24064 in output stream 0:0, replacing by guess
[mpegts @ 081362c0] Invalid timestamps stream=1, pts=524883600, dts=524890800, size=5368
[mpegts @ 081362c0] Invalid timestamps stream=1, pts=524890800, dts=524894400, size=5460
[hls,applehttp @ 00a55200] Invalid timestamps stream=1, pts=524883600, dts=524890800, size=5368
[mp4 @ 084f5ec0] Invalid DTS: 27136 PTS: 26112 in output stream 0:0, replacing by guess
[hls,applehttp @ 00a55200] Invalid timestamps stream=1, pts=524890800, dts=524894400, size=5460
[mp4 @ 084f5ec0] Invalid DTS: 27648 PTS: 27136 in output stream 0:0, replacing by guess
[mpegts @ 081362c0] Invalid timestamps stream=1, pts=524898000, dts=524905200, size=5642
[mpegts @ 081362c0] Invalid timestamps stream=1, pts=524905200, dts=524908800, size=6028
[hls,applehttp @ 00a55200] Invalid timestamps stream=1, pts=524898000, dts=524905200, size=5642
[hls,applehttp @ 00a55200] Invalid timestamps stream=1, pts=524905200, dts=524908800, size=6028
[mp4 @ 084f5ec0] Invalid DTS: 29184 PTS: 28160 in output stream 0:0, replacing by guess
[mp4 @ 084f5ec0] Invalid DTS: 29696 PTS: 29184 in output stream 0:0, replacing by guess
frame=   59 fps= 30 q=-1.0 size=     768kB time=00:00:02.28 bitrate=2759.9kbits/s speed=1.15x    
[mpegts @ 081362c0] Invalid timestamps stream=1, pts=524912400, dts=524919600, size=5323
[mpegts @ 081362c0] Invalid timestamps stream=1, pts=524919600, dts=524923200, size=4944
[hls,applehttp @ 00a55200] Invalid timestamps stream=1, pts=524912400, dts=524919600, size=5323
[mp4 @ 084f5ec0] Invalid DTS: 31232 PTS: 30208 in output stream 0:0, replacing by guess
[hls,applehttp @ 00a55200] Invalid timestamps stream=1, pts=524919600, dts=524923200, size=4944
[mp4 @ 084f5ec0] Invalid DTS: 31744 PTS: 31232 in output stream 0:0, replacing by guess
[mpegts @ 081362c0] Invalid timestamps stream=1, pts=524926800, dts=524934000, size=5401
[mpegts @ 081362c0] Invalid timestamps stream=1, pts=524934000, dts=524937600, size=7237
[hls,applehttp @ 00a55200] Invalid timestamps stream=1, pts=524926800, dts=524934000, size=5401
[mp4 @ 084f5ec0] Invalid DTS: 33280 PTS: 32256 in output stream 0:0, replacing by guess
[hls,applehttp @ 00a55200] Invalid timestamps stream=1, pts=524934000, dts=524937600, size=7237
[mp4 @ 084f5ec0] Invalid DTS: 33792 PTS: 33280 in output stream 0:0, replacing by guess
[mpegts @ 081362c0] Invalid timestamps stream=1, pts=524941200, dts=524948400, size=5675
[mpegts @ 081362c0] Invalid timestamps stream=1, pts=524948400, dts=524952000, size=7108
[hls,applehttp @ 00a55200] Invalid timestamps stream=1, pts=524941200, dts=524948400, size=5675
[mp4 @ 084f5ec0] Invalid DTS: 35328 PTS: 34304 in output stream 0:0, replacing by guess
[hls,applehttp @ 00a55200] Invalid timestamps stream=1, pts=524948400, dts=524952000, size=7108
[mp4 @ 084f5ec0] Invalid DTS: 35840 PTS: 35328 in output stream 0:0, replacing by guess
[mpegts @ 081362c0] Invalid timestamps stream=1, pts=524955600, dts=524962800, size=5225
[mpegts @ 081362c0] Invalid timestamps stream=1, pts=524962800, dts=524966400, size=7186
[hls,applehttp @ 00a55200] Invalid timestamps stream=1, pts=524955600, dts=524962800, size=5225
[mp4 @ 084f5ec0] Invalid DTS: 37376 PTS: 36352 in output stream 0:0, replacing by guess
[hls,applehttp @ 00a55200] Invalid timestamps stream=1, pts=524962800, dts=524966400, size=7186
[mp4 @ 084f5ec0] Invalid DTS: 37888 PTS: 37376 in output stream 0:0, replacing by guess
[mpegts @ 081362c0] Invalid timestamps stream=1, pts=524970000, dts=524977200, size=5492
[mpegts @ 081362c0] Invalid timestamps stream=1, pts=524977200, dts=524980800, size=7344
[hls,applehttp @ 00a55200] Invalid timestamps stream=1, pts=524970000, dts=524977200, size=5492
[hls,applehttp @ 00a55200] Invalid timestamps stream=1, pts=524977200, dts=524980800, size=7344
[mp4 @ 084f5ec0] Invalid DTS: 39424 PTS: 38400 in output stream 0:0, replacing by guess
[mp4 @ 084f5ec0] Invalid DTS: 39936 PTS: 39424 in output stream 0:0, replacing by guess
[mpegts @ 081362c0] Invalid timestamps stream=1, pts=524984400, dts=524991600, size=5676
frame=   79 fps= 23 q=-1.0 size=     768kB time=00:00:03.08 bitrate=2041.3kbits/s speed=0.889x    
[mpegts @ 081362c0] Invalid timestamps stream=1, pts=524991600, dts=524995200, size=7207
[hls,applehttp @ 00a55200] Invalid timestamps stream=1, pts=524984400, dts=524991600, size=5676
[mp4 @ 084f5ec0] Invalid DTS: 41472 PTS: 40448 in output stream 0:0, replacing by guess
[hls,applehttp @ 00a55200] Invalid timestamps stream=1, pts=524991600, dts=524995200, size=7207
[mp4 @ 084f5ec0] Invalid DTS: 41984 PTS: 41472 in output stream 0:0, replacing by guess
[mpegts @ 081362c0] Invalid timestamps stream=1, pts=524998800, dts=525006000, size=4963
[mpegts @ 081362c0] Invalid timestamps stream=1, pts=525006000, dts=525009600, size=7081
[hls,applehttp @ 00a55200] Invalid timestamps stream=1, pts=524998800, dts=525006000, size=4963
[mp4 @ 084f5ec0] Invalid DTS: 43520 PTS: 42496 in output stream 0:0, replacing by guess
[hls,applehttp @ 00a55200] Invalid timestamps stream=1, pts=525006000, dts=525009600, size=7081
[mp4 @ 084f5ec0] Invalid DTS: 44032 PTS: 43520 in output stream 0:0, replacing by guess
[mpegts @ 081362c0] Invalid timestamps stream=1, pts=525013200, dts=525020400, size=4706
frame=   89 fps= 22 q=-1.0 size=    1024kB time=00:00:03.52 bitrate=2383.4kbits/s speed=0.879x    
[mpegts @ 081362c0] Invalid timestamps stream=1, pts=525020400, dts=525024000, size=7008
[hls,applehttp @ 00a55200] Invalid timestamps stream=1, pts=525013200, dts=525020400, size=4706
[mp4 @ 084f5ec0] Invalid DTS: 45568 PTS: 44544 in output stream 0:0, replacing by guess
[hls,applehttp @ 00a55200] Invalid timestamps stream=1, pts=525020400, dts=525024000, size=7008
[mpegts @ 081362c0] Invalid timestamps stream=1, pts=525027600, dts=525034800, size=5549
[mp4 @ 084f5ec0] Invalid DTS: 46080 PTS: 45568 in output stream 0:0, replacing by guess
[mpegts @ 081362c0] Invalid timestamps stream=1, pts=525034800, dts=525038400, size=7267
[hls,applehttp @ 00a55200] Invalid timestamps stream=1, pts=525027600, dts=525034800, size=5549
[mp4 @ 084f5ec0] Invalid DTS: 47616 PTS: 46592 in output stream 0:0, replacing by guess
[hls,applehttp @ 00a55200] Invalid timestamps stream=1, pts=525034800, dts=525038400, size=7267
[mp4 @ 084f5ec0] Invalid DTS: 48128 PTS: 47616 in output stream 0:0, replacing by guess
[mpegts @ 081362c0] Invalid timestamps stream=1, pts=525042000, dts=525049200, size=5252
[mpegts @ 081362c0] Invalid timestamps stream=1, pts=525049200, dts=525052800, size=6896
[hls,applehttp @ 00a55200] Invalid timestamps stream=1, pts=525042000, dts=525049200, size=5252
[mp4 @ 084f5ec0] Invalid DTS: 49664 PTS: 48640 in output stream 0:0, replacing by guess
[hls,applehttp @ 00a55200] Invalid timestamps stream=1, pts=525049200, dts=525052800, size=6896
[mp4 @ 084f5ec0] Invalid DTS: 50176 PTS: 49664 in output stream 0:0, replacing by guess
[mpegts @ 081362c0] Invalid timestamps stream=1, pts=525063600, dts=525070800, size=4329
[mpegts @ 081362c0] Invalid timestamps stream=1, pts=525070800, dts=525074400, size=4685
[hls,applehttp @ 00a55200] Invalid timestamps stream=1, pts=525063600, dts=525070800, size=4329
[mp4 @ 084f5ec0] Invalid DTS: 52736 PTS: 51712 in output stream 0:0, replacing by guess
[hls,applehttp @ 00a55200] Invalid timestamps stream=1, pts=525070800, dts=525074400, size=4685
[mp4 @ 084f5ec0] Invalid DTS: 53248 PTS: 52736 in output stream 0:0, replacing by guess
[mpegts @ 081362c0] Invalid timestamps stream=1, pts=525078000, dts=525085200, size=4972
[mpegts @ 081362c0] Invalid timestamps stream=1, pts=525085200, dts=525088800, size=5301
[hls,applehttp @ 00a55200] Invalid timestamps stream=1, pts=525078000, dts=525085200, size=4972
[mp4 @ 084f5ec0] Invalid DTS: 54784 PTS: 53760 in output stream 0:0, replacing by guess
[hls,applehttp @ 00a55200] Invalid timestamps stream=1, pts=525085200, dts=525088800, size=5301
frame=  108 fps= 19 q=-1.0 size=    1280kB time=00:00:04.24 bitrate=2473.3kbits/s speed=0.745x    
[mp4 @ 084f5ec0] Invalid DTS: 55296 PTS: 54784 in output stream 0:0, replacing by guess
[mpegts @ 081362c0] Invalid timestamps stream=1, pts=525092400, dts=525099600, size=4555
[mpegts @ 081362c0] Invalid timestamps stream=1, pts=525099600, dts=525103200, size=6295
[hls,applehttp @ 00a55200] Invalid timestamps stream=1, pts=525092400, dts=525099600, size=4555
[mp4 @ 084f5ec0] Invalid DTS: 56832 PTS: 55808 in output stream 0:0, replacing by guess
[hls,applehttp @ 00a55200] Invalid timestamps stream=1, pts=525099600, dts=525103200, size=6295
[mp4 @ 084f5ec0] Invalid DTS: 57344 PTS: 56832 in output stream 0:0, replacing by guess
[mpegts @ 081362c0] Invalid timestamps stream=1, pts=525106800, dts=525114000, size=4964
[mpegts @ 081362c0] Invalid timestamps stream=1, pts=525114000, dts=525117600, size=6765
[hls,applehttp @ 00a55200] Invalid timestamps stream=1, pts=525106800, dts=525114000, size=4964
[mp4 @ 084f5ec0] Invalid DTS: 58880 PTS: 57856 in output stream 0:0, replacing by guess
[hls,applehttp @ 00a55200] Invalid timestamps stream=1, pts=525114000, dts=525117600, size=6765
[mp4 @ 084f5ec0] Invalid DTS: 59392 PTS: 58880 in output stream 0:0, replacing by guess
[mpegts @ 081362c0] Invalid timestamps stream=1, pts=525121200, dts=525128400, size=5297
[mpegts @ 081362c0] Invalid timestamps stream=1, pts=525128400, dts=525132000, size=5833
[hls,applehttp @ 00a55200] Invalid timestamps stream=1, pts=525121200, dts=525128400, size=5297
[mp4 @ 084f5ec0] Invalid DTS: 60928 PTS: 59904 in output stream 0:0, replacing by guess
[hls,applehttp @ 00a55200] Invalid timestamps stream=1, pts=525128400, dts=525132000, size=5833
[mp4 @ 084f5ec0] Invalid DTS: 61440 PTS: 60928 in output stream 0:0, replacing by guess
[mpegts @ 081362c0] Invalid timestamps stream=1, pts=525135600, dts=525142800, size=5084
[mpegts @ 081362c0] Invalid timestamps stream=1, pts=525142800, dts=525146400, size=7330
[hls,applehttp @ 00a55200] Invalid timestamps stream=1, pts=525135600, dts=525142800, size=5084
[hls,applehttp @ 00a55200] Invalid timestamps stream=1, pts=525142800, dts=525146400, size=7330
[mp4 @ 084f5ec0] Invalid DTS: 62976 PTS: 61952 in output stream 0:0, replacing by guess
[mp4 @ 084f5ec0] Invalid DTS: 63488 PTS: 62976 in output stream 0:0, replacing by guess
[mpegts @ 081362c0] Invalid timestamps stream=1, pts=525150000, dts=525157200, size=5798
[mpegts @ 081362c0] Invalid timestamps stream=1, pts=525157200, dts=525160800, size=7695
[hls,applehttp @ 00a55200] Invalid timestamps stream=1, pts=525150000, dts=525157200, size=5798
[hls,applehttp @ 00a55200] Invalid timestamps stream=1, pts=525157200, dts=525160800, size=7695
frame=  127 fps= 20 q=-1.0 size=    1536kB time=00:00:05.04 bitrate=2496.8kbits/s speed=0.808x    
[mp4 @ 084f5ec0] Invalid DTS: 65024 PTS: 64000 in output stream 0:0, replacing by guess
[mp4 @ 084f5ec0] Invalid DTS: 65536 PTS: 65024 in output stream 0:0, replacing by guess
[mpegts @ 081362c0] Invalid timestamps stream=1, pts=525164400, dts=525171600, size=6442
[mpegts @ 081362c0] Invalid timestamps stream=1, pts=525171600, dts=525175200, size=7149
[hls,applehttp @ 00a55200] Invalid timestamps stream=1, pts=525164400, dts=525171600, size=6442
[mp4 @ 084f5ec0] Invalid DTS: 67072 PTS: 66048 in output stream 0:0, replacing by guess
[hls,applehttp @ 00a55200] Invalid timestamps stream=1, pts=525171600, dts=525175200, size=7149
[mpegts @ 081362c0] Invalid timestamps stream=1, pts=525178800, dts=525186000, size=5392
[mpegts @ 081362c0] Invalid timestamps stream=1, pts=525186000, dts=525189600, size=6411
[hls,applehttp @ 00a55200] Invalid timestamps stream=1, pts=525178800, dts=525186000, size=5392
[mp4 @ 084f5ec0] Invalid DTS: 67584 PTS: 67072 in output stream 0:0, replacing by guess
[mp4 @ 084f5ec0] Invalid DTS: 69120 PTS: 68096 in output stream 0:0, replacing by guess
[hls,applehttp @ 00a55200] Invalid timestamps stream=1, pts=525186000, dts=525189600, size=6411
[mpegts @ 081362c0] Invalid timestamps stream=1, pts=525193200, dts=525200400, size=5470
[mpegts @ 081362c0] Invalid timestamps stream=1, pts=525200400, dts=525204000, size=7156
[hls,applehttp @ 00a55200] Invalid timestamps stream=1, pts=525193200, dts=525200400, size=5470
[mp4 @ 084f5ec0] Invalid DTS: 69632 PTS: 69120 in output stream 0:0, replacing by guess
[mp4 @ 084f5ec0] Invalid DTS: 71168 PTS: 70144 in output stream 0:0, replacing by guess
[hls,applehttp @ 00a55200] Invalid timestamps stream=1, pts=525200400, dts=525204000, size=7156
[mp4 @ 084f5ec0] Invalid DTS: 71680 PTS: 71168 in output stream 0:0, replacing by guess
[mpegts @ 081362c0] Invalid timestamps stream=1, pts=525207600, dts=525214800, size=5472
[mpegts @ 081362c0] Invalid timestamps stream=1, pts=525214800, dts=525218400, size=7110
[hls,applehttp @ 00a55200] Invalid timestamps stream=1, pts=525207600, dts=525214800, size=5472
[mp4 @ 084f5ec0] Invalid DTS: 73216 PTS: 72192 in output stream 0:0, replacing by guess
[hls,applehttp @ 00a55200] Invalid timestamps stream=1, pts=525214800, dts=525218400, size=7110
[mp4 @ 084f5ec0] Invalid DTS: 73728 PTS: 73216 in output stream 0:0, replacing by guess
[mpegts @ 081362c0] Invalid timestamps stream=1, pts=525222000, dts=525229200, size=5249
[mpegts @ 081362c0] Invalid timestamps stream=1, pts=525229200, dts=525232800, size=6797
[hls,applehttp @ 00a55200] Invalid timestamps stream=1, pts=525222000, dts=525229200, size=5249
[mp4 @ 084f5ec0] Invalid DTS: 75264 PTS: 74240 in output stream 0:0, replacing by guess
[hls,applehttp @ 00a55200] Invalid timestamps stream=1, pts=525229200, dts=525232800, size=6797
[mp4 @ 084f5ec0] Invalid DTS: 75776 PTS: 75264 in output stream 0:0, replacing by guess
frame=  150 fps= 20 q=-1.0 size=    1792kB time=00:00:05.92 bitrate=2479.9kbits/s speed=0.775x    
[mpegts @ 081362c0] Invalid timestamps stream=1, pts=525243600, dts=525250800, size=4287
[mpegts @ 081362c0] Invalid timestamps stream=1, pts=525250800, dts=525254400, size=4602
[hls,applehttp @ 00a55200] Invalid timestamps stream=1, pts=525243600, dts=525250800, size=4287
[mp4 @ 084f5ec0] Invalid DTS: 78336 PTS: 77312 in output stream 0:0, replacing by guess
[hls,applehttp @ 00a55200] Invalid timestamps stream=1, pts=525250800, dts=525254400, size=4602
[mp4 @ 084f5ec0] Invalid DTS: 78848 PTS: 78336 in output stream 0:0, replacing by guess
[mpegts @ 081362c0] Invalid timestamps stream=1, pts=525258000, dts=525265200, size=4828
[mpegts @ 081362c0] Invalid timestamps stream=1, pts=525265200, dts=525268800, size=5417
[hls,applehttp @ 00a55200] Invalid timestamps stream=1, pts=525258000, dts=525265200, size=4828
[hls,applehttp @ 00a55200] Invalid timestamps stream=1, pts=525265200, dts=525268800, size=5417
[mp4 @ 084f5ec0] Invalid DTS: 80384 PTS: 79360 in output stream 0:0, replacing by guess
[mp4 @ 084f5ec0] Invalid DTS: 80896 PTS: 80384 in output stream 0:0, replacing by guess
[mpegts @ 081362c0] Invalid timestamps stream=1, pts=525272400, dts=525279600, size=4569
[mpegts @ 081362c0] Invalid timestamps stream=1, pts=525279600, dts=525283200, size=6013
[hls,applehttp @ 00a55200] Invalid timestamps stream=1, pts=525272400, dts=525279600, size=4569
[mp4 @ 084f5ec0] Invalid DTS: 82432 PTS: 81408 in output stream 0:0, replacing by guess
[hls,applehttp @ 00a55200] Invalid timestamps stream=1, pts=525279600, dts=525283200, size=6013
[mpegts @ 081362c0] Invalid timestamps stream=1, pts=525286800, dts=525294000, size=5148
[mp4 @ 084f5ec0] Invalid DTS: 82944 PTS: 82432 in output stream 0:0, replacing by guess
frame=  164 fps= 20 q=-1.0 size=    1792kB time=00:00:06.52 bitrate=2251.7kbits/s speed=0.794x    
[mpegts @ 081362c0] Invalid timestamps stream=1, pts=525294000, dts=525297600, size=6477
[hls,applehttp @ 00a55200] Invalid timestamps stream=1, pts=525286800, dts=525294000, size=5148
[hls,applehttp @ 00a55200] Invalid timestamps stream=1, pts=525294000, dts=525297600, size=6477
[mp4 @ 084f5ec0] Invalid DTS: 84480 PTS: 83456 in output stream 0:0, replacing by guess
[mp4 @ 084f5ec0] Invalid DTS: 84992 PTS: 84480 in output stream 0:0, replacing by guess
[mpegts @ 081362c0] Invalid timestamps stream=1, pts=525301200, dts=525308400, size=4740
[mpegts @ 081362c0] Invalid timestamps stream=1, pts=525308400, dts=525312000, size=6566
[hls,applehttp @ 00a55200] Invalid timestamps stream=1, pts=525301200, dts=525308400, size=4740
[mp4 @ 084f5ec0] Invalid DTS: 86528 PTS: 85504 in output stream 0:0, replacing by guess
[hls,applehttp @ 00a55200] Invalid timestamps stream=1, pts=525308400, dts=525312000, size=6566
[mp4 @ 084f5ec0] Invalid DTS: 87040 PTS: 86528 in output stream 0:0, replacing by guess
[mpegts @ 081362c0] Invalid timestamps stream=1, pts=525315600, dts=525322800, size=5523
[mpegts @ 081362c0] Invalid timestamps stream=1, pts=525322800, dts=525326400, size=6946
[hls,applehttp @ 00a55200] Invalid timestamps stream=1, pts=525315600, dts=525322800, size=5523
[mp4 @ 084f5ec0] Invalid DTS: 88576 PTS: 87552 in output stream 0:0, replacing by guess
[hls,applehttp @ 00a55200] Invalid timestamps stream=1, pts=525322800, dts=525326400, size=6946
[mp4 @ 084f5ec0] Invalid DTS: 89088 PTS: 88576 in output stream 0:0, replacing by guess
[mpegts @ 081362c0] Invalid timestamps stream=1, pts=525330000, dts=525337200, size=6031
[mpegts @ 081362c0] Invalid timestamps stream=1, pts=525337200, dts=525340800, size=7148
[hls,applehttp @ 00a55200] Invalid timestamps stream=1, pts=525330000, dts=525337200, size=6031
[mp4 @ 084f5ec0] Invalid DTS: 90624 PTS: 89600 in output stream 0:0, replacing by guess
[hls,applehttp @ 00a55200] Invalid timestamps stream=1, pts=525337200, dts=525340800, size=7148
[mp4 @ 084f5ec0] Invalid DTS: 91136 PTS: 90624 in output stream 0:0, replacing by guess
[mpegts @ 081362c0] Invalid timestamps stream=1, pts=525344400, dts=525351600, size=7494
[mpegts @ 081362c0] Invalid timestamps stream=1, pts=525351600, dts=525355200, size=6589
[hls,applehttp @ 00a55200] Invalid timestamps stream=1, pts=525344400, dts=525351600, size=7494
[mp4 @ 084f5ec0] Invalid DTS: 92672 PTS: 91648 in output stream 0:0, replacing by guess
[hls,applehttp @ 00a55200] Invalid timestamps stream=1, pts=525351600, dts=525355200, size=6589
[mp4 @ 084f5ec0] Invalid DTS: 93184 PTS: 92672 in output stream 0:0, replacing by guess
[mpegts @ 081362c0] Invalid timestamps stream=1, pts=525358800, dts=525366000, size=5484
frame=  184 fps= 19 q=-1.0 size=    2048kB time=00:00:07.32 bitrate=2292.1kbits/s speed=0.75x    
[mpegts @ 081362c0] Invalid timestamps stream=1, pts=525366000, dts=525369600, size=6665
[hls,applehttp @ 00a55200] Invalid timestamps stream=1, pts=525358800, dts=525366000, size=5484
[mp4 @ 084f5ec0] Invalid DTS: 94720 PTS: 93696 in output stream 0:0, replacing by guess
[hls,applehttp @ 00a55200] Invalid timestamps stream=1, pts=525366000, dts=525369600, size=6665
[mp4 @ 084f5ec0] Invalid DTS: 95232 PTS: 94720 in output stream 0:0, replacing by guess
[mpegts @ 081362c0] Invalid timestamps stream=1, pts=525373200, dts=525380400, size=5247
[mpegts @ 081362c0] Invalid timestamps stream=1, pts=525380400, dts=525384000, size=6557
[hls,applehttp @ 00a55200] Invalid timestamps stream=1, pts=525373200, dts=525380400, size=5247
[hls,applehttp @ 00a55200] Invalid timestamps stream=1, pts=525380400, dts=525384000, size=6557
[mpegts @ 081362c0] Invalid timestamps stream=1, pts=525387600, dts=525394800, size=5771
[mp4 @ 084f5ec0] Invalid DTS: 96768 PTS: 95744 in output stream 0:0, replacing by guess
[mp4 @ 084f5ec0] Invalid DTS: 97280 PTS: 96768 in output stream 0:0, replacing by guess
[mpegts @ 081362c0] Invalid timestamps stream=1, pts=525394800, dts=525398400, size=6950
[hls,applehttp @ 00a55200] Invalid timestamps stream=1, pts=525387600, dts=525394800, size=5771
[mp4 @ 084f5ec0] Invalid DTS: 98816 PTS: 97792 in output stream 0:0, replacing by guess
[hls,applehttp @ 00a55200] Invalid timestamps stream=1, pts=525394800, dts=525398400, size=6950
[mpegts @ 081362c0] Invalid timestamps stream=1, pts=525402000, dts=525409200, size=5302
[mp4 @ 084f5ec0] Invalid DTS: 99328 PTS: 98816 in output stream 0:0, replacing by guess
[mpegts @ 081362c0] Invalid timestamps stream=1, pts=525409200, dts=525412800, size=7233
[hls,applehttp @ 00a55200] Invalid timestamps stream=1, pts=525402000, dts=525409200, size=5302
[mp4 @ 084f5ec0] Invalid DTS: 100864 PTS: 99840 in output stream 0:0, replacing by guess
[hls,applehttp @ 00a55200] Invalid timestamps stream=1, pts=525409200, dts=525412800, size=7233
[mp4 @ 084f5ec0] Invalid DTS: 101376 PTS: 100864 in output stream 0:0, replacing by guess
[mpegts @ 081362c0] Invalid timestamps stream=1, pts=525423600, dts=525430800, size=5172
[mpegts @ 081362c0] Invalid timestamps stream=1, pts=525430800, dts=525434400, size=4969
[hls,applehttp @ 00a55200] Invalid timestamps stream=1, pts=525423600, dts=525430800, size=5172
[mp4 @ 084f5ec0] Invalid DTS: 103936 PTS: 102912 in output stream 0:0, replacing by guess
[hls,applehttp @ 00a55200] Invalid timestamps stream=1, pts=525430800, dts=525434400, size=4969
[mpegts @ 081362c0] Invalid timestamps stream=1, pts=525438000, dts=525445200, size=5079
[mpegts @ 081362c0] Invalid timestamps stream=1, pts=525445200, dts=525448800, size=5428
[hls,applehttp @ 00a55200] Invalid timestamps stream=1, pts=525438000, dts=525445200, size=5079
[mp4 @ 084f5ec0] Invalid DTS: 104448 PTS: 103936 in output stream 0:0, replacing by guess
[mp4 @ 084f5ec0] Invalid DTS: 105984 PTS: 104960 in output stream 0:0, replacing by guess
[hls,applehttp @ 00a55200] Invalid timestamps stream=1, pts=525445200, dts=525448800, size=5428
[mpegts @ 081362c0] Invalid timestamps stream=1, pts=525452400, dts=525459600, size=4987
[mpegts @ 081362c0] Invalid timestamps stream=1, pts=525459600, dts=525463200, size=7423
[hls,applehttp @ 00a55200] Invalid timestamps stream=1, pts=525452400, dts=525459600, size=4987
frame=  208 fps= 20 q=-1.0 size=    2560kB time=00:00:08.26 bitrate=2537.0kbits/s speed=0.801x    
[mp4 @ 084f5ec0] Invalid DTS: 106496 PTS: 105984 in output stream 0:0, replacing by guess
[mp4 @ 084f5ec0] Invalid DTS: 108032 PTS: 107008 in output stream 0:0, replacing by guess
[hls,applehttp @ 00a55200] Invalid timestamps stream=1, pts=525459600, dts=525463200, size=7423
[mp4 @ 084f5ec0] Invalid DTS: 108544 PTS: 108032 in output stream 0:0, replacing by guess
[mpegts @ 081362c0] Invalid timestamps stream=1, pts=525466800, dts=525474000, size=7061
[mpegts @ 081362c0] Invalid timestamps stream=1, pts=525474000, dts=525477600, size=7984
[hls,applehttp @ 00a55200] Invalid timestamps stream=1, pts=525466800, dts=525474000, size=7061
[mp4 @ 084f5ec0] Invalid DTS: 110080 PTS: 109056 in output stream 0:0, replacing by guess
[hls,applehttp @ 00a55200] Invalid timestamps stream=1, pts=525474000, dts=525477600, size=7984
[mp4 @ 084f5ec0] Invalid DTS: 110592 PTS: 110080 in output stream 0:0, replacing by guess
[mpegts @ 081362c0] Invalid timestamps stream=1, pts=525481200, dts=525488400, size=6466
[mpegts @ 081362c0] Invalid timestamps stream=1, pts=525488400, dts=525492000, size=8229
[hls,applehttp @ 00a55200] Invalid timestamps stream=1, pts=525481200, dts=525488400, size=6466
[mp4 @ 084f5ec0] Invalid DTS: 112128 PTS: 111104 in output stream 0:0, replacing by guess
[hls,applehttp @ 00a55200] Invalid timestamps stream=1, pts=525488400, dts=525492000, size=8229
[mp4 @ 084f5ec0] Invalid DTS: 112640 PTS: 112128 in output stream 0:0, replacing by guess
[mpegts @ 081362c0] Invalid timestamps stream=1, pts=525495600, dts=525502800, size=6348
[mpegts @ 081362c0] Invalid timestamps stream=1, pts=525502800, dts=525506400, size=7835
[hls,applehttp @ 00a55200] Invalid timestamps stream=1, pts=525495600, dts=525502800, size=6348
[mp4 @ 084f5ec0] Invalid DTS: 114176 PTS: 113152 in output stream 0:0, replacing by guess
[hls,applehttp @ 00a55200] Invalid timestamps stream=1, pts=525502800, dts=525506400, size=7835
[mp4 @ 084f5ec0] Invalid DTS: 114688 PTS: 114176 in output stream 0:0, replacing by guess
[mpegts @ 081362c0] Invalid timestamps stream=1, pts=525510000, dts=525517200, size=4682
[mpegts @ 081362c0] Invalid timestamps stream=1, pts=525517200, dts=525520800, size=8316
[hls,applehttp @ 00a55200] Invalid timestamps stream=1, pts=525510000, dts=525517200, size=4682
[mp4 @ 084f5ec0] Invalid DTS: 116224 PTS: 115200 in output stream 0:0, replacing by guess
[hls,applehttp @ 00a55200] Invalid timestamps stream=1, pts=525517200, dts=525520800, size=8316
[mpegts @ 081362c0] Invalid timestamps stream=1, pts=525524400, dts=525531600, size=6669
[mp4 @ 084f5ec0] Invalid DTS: 116736 PTS: 116224 in output stream 0:0, replacing by guess
frame=  230 fps= 19 q=-1.0 size=    2560kB time=00:00:09.16 bitrate=2289.6kbits/s speed=0.772x    
[mpegts @ 081362c0] Invalid timestamps stream=1, pts=525531600, dts=525535200, size=7485
[hls,applehttp @ 00a55200] Invalid timestamps stream=1, pts=525524400, dts=525531600, size=6669
[mp4 @ 084f5ec0] Invalid DTS: 118272 PTS: 117248 in output stream 0:0, replacing by guess
[hls,applehttp @ 00a55200] Invalid timestamps stream=1, pts=525531600, dts=525535200, size=7485
[mp4 @ 084f5ec0] Invalid DTS: 118784 PTS: 118272 in output stream 0:0, replacing by guess
[mpegts @ 081362c0] Invalid timestamps stream=1, pts=525538800, dts=525546000, size=5199
[mpegts @ 081362c0] Invalid timestamps stream=1, pts=525546000, dts=525549600, size=6382
[hls,applehttp @ 00a55200] Invalid timestamps stream=1, pts=525538800, dts=525546000, size=5199
[mp4 @ 084f5ec0] Invalid DTS: 120320 PTS: 119296 in output stream 0:0, replacing by guess
[hls,applehttp @ 00a55200] Invalid timestamps stream=1, pts=525546000, dts=525549600, size=6382
[mp4 @ 084f5ec0] Invalid DTS: 120832 PTS: 120320 in output stream 0:0, replacing by guess
frame=  237 fps= 19 q=-1.0 size=    2816kB time=00:00:09.40 bitrate=2454.2kbits/s speed=0.76x    
[mpegts @ 081362c0] Invalid timestamps stream=1, pts=525553200, dts=525560400, size=3909
[mpegts @ 081362c0] Invalid timestamps stream=1, pts=525560400, dts=525564000, size=5172
[hls,applehttp @ 00a55200] Invalid timestamps stream=1, pts=525553200, dts=525560400, size=3909
[mp4 @ 084f5ec0] Invalid DTS: 122368 PTS: 121344 in output stream 0:0, replacing by guess
[hls,applehttp @ 00a55200] Invalid timestamps stream=1, pts=525560400, dts=525564000, size=5172
[mp4 @ 084f5ec0] Invalid DTS: 122880 PTS: 122368 in output stream 0:0, replacing by guess
[mpegts @ 081362c0] Invalid timestamps stream=1, pts=525567600, dts=525574800, size=4831
[mpegts @ 081362c0] Invalid timestamps stream=1, pts=525574800, dts=525578400, size=6259
[hls,applehttp @ 00a55200] Invalid timestamps stream=1, pts=525567600, dts=525574800, size=4831
[mp4 @ 084f5ec0] Invalid DTS: 124416 PTS: 123392 in output stream 0:0, replacing by guess
[hls,applehttp @ 00a55200] Invalid timestamps stream=1, pts=525574800, dts=525578400, size=6259
[mp4 @ 084f5ec0] Invalid DTS: 124928 PTS: 124416 in output stream 0:0, replacing by guess
[mpegts @ 081362c0] Invalid timestamps stream=1, pts=525582000, dts=525589200, size=4189
[mpegts @ 081362c0] Invalid timestamps stream=1, pts=525589200, dts=525592800, size=5113
[hls,applehttp @ 00a55200] Invalid timestamps stream=1, pts=525582000, dts=525589200, size=4189
[mp4 @ 084f5ec0] Invalid DTS: 126464 PTS: 125440 in output stream 0:0, replacing by guess
[hls,applehttp @ 00a55200] Opening 'crypto+https://rtl-hls-aes-longtail.akamaized.net/10/v166/aes/adaptive/components/videorecorder/37/379476/384038/a6795cd2-5e15-3cd1-a556-8417f1d7d48a.ssm/a6795cd2-5e15-3cd1-a556-8417f1d7d48a.ism/a6795cd2-5e15-3cd1-a556-8417f1d7d48a-audio=125436-video=2321000-584.ts' for reading
[hls,applehttp @ 00a55200] Invalid timestamps stream=1, pts=525589200, dts=525592800, size=5113
[mp4 @ 084f5ec0] Invalid DTS: 126976 PTS: 126464 in output stream 0:0, replacing by guess
frame=  250 fps= 16 q=-1.0 size=    2816kB time=00:00:09.99 bitrate=2308.2kbits/s speed=0.62x    
[mpegts @ 081362c0] Invalid timestamps stream=1, pts=525603600, dts=525610800, size=4235
[mpegts @ 081362c0] Invalid timestamps stream=1, pts=525610800, dts=525614400, size=4664
[hls,applehttp @ 00a55200] Invalid timestamps stream=1, pts=525603600, dts=525610800, size=4235
[mp4 @ 084f5ec0] Invalid DTS: 129536 PTS: 128512 in output stream 0:0, replacing by guess
[hls,applehttp @ 00a55200] Invalid timestamps stream=1, pts=525610800, dts=525614400, size=4664
[mpegts @ 081362c0] Invalid timestamps stream=1, pts=525618000, dts=525625200, size=5027
[mp4 @ 084f5ec0] Invalid DTS: 130048 PTS: 129536 in output stream 0:0, replacing by guess
[mpegts @ 081362c0] Invalid timestamps stream=1, pts=525625200, dts=525628800, size=5236
[hls,applehttp @ 00a55200] Invalid timestamps stream=1, pts=525618000, dts=525625200, size=5027
[mp4 @ 084f5ec0] Invalid DTS: 131584 PTS: 130560 in output stream 0:0, replacing by guess
[hls,applehttp @ 00a55200] Invalid timestamps stream=1, pts=525625200, dts=525628800, size=5236
[mp4 @ 084f5ec0] Invalid DTS: 132096 PTS: 131584 in output stream 0:0, replacing by guess
[mpegts @ 081362c0] Invalid timestamps stream=1, pts=525632400, dts=525639600, size=4605
[mpegts @ 081362c0] Invalid timestamps stream=1, pts=525639600, dts=525643200, size=5651
[hls,applehttp @ 00a55200] Invalid timestamps stream=1, pts=525632400, dts=525639600, size=4605
[mp4 @ 084f5ec0] Invalid DTS: 133632 PTS: 132608 in output stream 0:0, replacing by guess
[hls,applehttp @ 00a55200] Invalid timestamps stream=1, pts=525639600, dts=525643200, size=5651
[mp4 @ 084f5ec0] Invalid DTS: 134144 PTS: 133632 in output stream 0:0, replacing by guess
[mpegts @ 081362c0] Invalid timestamps stream=1, pts=525646800, dts=525654000, size=5696
[mpegts @ 081362c0] Invalid timestamps stream=1, pts=525654000, dts=525657600, size=6381
[hls,applehttp @ 00a55200] Invalid timestamps stream=1, pts=525646800, dts=525654000, size=5696
[mp4 @ 084f5ec0] Invalid DTS: 135680 PTS: 134656 in output stream 0:0, replacing by guess
[hls,applehttp @ 00a55200] Invalid timestamps stream=1, pts=525654000, dts=525657600, size=6381
[mp4 @ 084f5ec0] Invalid DTS: 136192 PTS: 135680 in output stream 0:0, replacing by guess
[mpegts @ 081362c0] Invalid timestamps stream=1, pts=525661200, dts=525668400, size=5890
[mpegts @ 081362c0] Invalid timestamps stream=1, pts=525668400, dts=525672000, size=6887
[hls,applehttp @ 00a55200] Invalid timestamps stream=1, pts=525661200, dts=525668400, size=5890
[mp4 @ 084f5ec0] Invalid DTS: 137728 PTS: 136704 in output stream 0:0, replacing by guess
[hls,applehttp @ 00a55200] Invalid timestamps stream=1, pts=525668400, dts=525672000, size=6887
[mp4 @ 084f5ec0] Invalid DTS: 138240 PTS: 137728 in output stream 0:0, replacing by guess
[mpegts @ 081362c0] Invalid timestamps stream=1, pts=525675600, dts=525682800, size=5789
[mpegts @ 081362c0] Invalid timestamps stream=1, pts=525682800, dts=525686400, size=6544
[hls,applehttp @ 00a55200] Invalid timestamps stream=1, pts=525675600, dts=525682800, size=5789
[hls,applehttp @ 00a55200] Invalid timestamps stream=1, pts=525682800, dts=525686400, size=6544
frame=  272 fps= 16 q=-1.0 size=    3328kB time=00:00:10.86 bitrate=2508.4kbits/s speed=0.652x    
[mp4 @ 084f5ec0] Invalid DTS: 139776 PTS: 138752 in output stream 0:0, replacing by guess
[mp4 @ 084f5ec0] Invalid DTS: 140288 PTS: 139776 in output stream 0:0, replacing by guess
[mpegts @ 081362c0] Invalid timestamps stream=1, pts=525690000, dts=525697200, size=5233
[mpegts @ 081362c0] Invalid timestamps stream=1, pts=525697200, dts=525700800, size=6882
[hls,applehttp @ 00a55200] Invalid timestamps stream=1, pts=525690000, dts=525697200, size=5233
[mp4 @ 084f5ec0] Invalid DTS: 141824 PTS: 140800 in output stream 0:0, replacing by guess
[hls,applehttp @ 00a55200] Invalid timestamps stream=1, pts=525697200, dts=525700800, size=6882
[mp4 @ 084f5ec0] Invalid DTS: 142336 PTS: 141824 in output stream 0:0, replacing by guess
[mpegts @ 081362c0] Invalid timestamps stream=1, pts=525704400, dts=525711600, size=7055
[mpegts @ 081362c0] Invalid timestamps stream=1, pts=525711600, dts=525715200, size=6054
[hls,applehttp @ 00a55200] Invalid timestamps stream=1, pts=525704400, dts=525711600, size=7055
[mp4 @ 084f5ec0] Invalid DTS: 143872 PTS: 142848 in output stream 0:0, replacing by guess
[hls,applehttp @ 00a55200] Invalid timestamps stream=1, pts=525711600, dts=525715200, size=6054
[mp4 @ 084f5ec0] Invalid DTS: 144384 PTS: 143872 in output stream 0:0, replacing by guess
[mpegts @ 081362c0] Invalid timestamps stream=1, pts=525718800, dts=525726000, size=5148
[mpegts @ 081362c0] Invalid timestamps stream=1, pts=525726000, dts=525729600, size=6645
[hls,applehttp @ 00a55200] Invalid timestamps stream=1, pts=525718800, dts=525726000, size=5148
[mp4 @ 084f5ec0] Invalid DTS: 145920 PTS: 144896 in output stream 0:0, replacing by guess
[hls,applehttp @ 00a55200] Invalid timestamps stream=1, pts=525726000, dts=525729600, size=6645
[mp4 @ 084f5ec0] Invalid DTS: 146432 PTS: 145920 in output stream 0:0, replacing by guess
[mpegts @ 081362c0] Invalid timestamps stream=1, pts=525733200, dts=525740400, size=5737
[mpegts @ 081362c0] Invalid timestamps stream=1, pts=525740400, dts=525744000, size=7109
[hls,applehttp @ 00a55200] Invalid timestamps stream=1, pts=525733200, dts=525740400, size=5737
[mp4 @ 084f5ec0] Invalid DTS: 147968 PTS: 146944 in output stream 0:0, replacing by guess
[hls,applehttp @ 00a55200] Invalid timestamps stream=1, pts=525740400, dts=525744000, size=7109
[mp4 @ 084f5ec0] Invalid DTS: 148480 PTS: 147968 in output stream 0:0, replacing by guess
frame=  292 fps= 16 q=-1.0 size=    3328kB time=00:00:11.64 bitrate=2342.3kbits/s speed=0.643x    
[mpegts @ 081362c0] Invalid timestamps stream=1, pts=525747600, dts=525754800, size=5828
[mpegts @ 081362c0] Invalid timestamps stream=1, pts=525754800, dts=525758400, size=6967
[hls,applehttp @ 00a55200] Invalid timestamps stream=1, pts=525747600, dts=525754800, size=5828
[mp4 @ 084f5ec0] Invalid DTS: 150016 PTS: 148992 in output stream 0:0, replacing by guess
[hls,applehttp @ 00a55200] Invalid timestamps stream=1, pts=525754800, dts=525758400, size=6967
[mp4 @ 084f5ec0] Invalid DTS: 150528 PTS: 150016 in output stream 0:0, replacing by guess
[mpegts @ 081362c0] Invalid timestamps stream=1, pts=525762000, dts=525769200, size=6554
[mpegts @ 081362c0] Invalid timestamps stream=1, pts=525769200, dts=525772800, size=7326
[hls,applehttp @ 00a55200] Invalid timestamps stream=1, pts=525762000, dts=525769200, size=6554
[hls,applehttp @ 00a55200] Invalid timestamps stream=1, pts=525769200, dts=525772800, size=7326
[mp4 @ 084f5ec0] Invalid DTS: 152064 PTS: 151040 in output stream 0:0, replacing by guess
[mp4 @ 084f5ec0] Invalid DTS: 152576 PTS: 152064 in output stream 0:0, replacing by guess
frame=  301 fps= 16 q=-1.0 size=    3584kB time=00:00:11.96 bitrate=2454.9kbits/s speed=0.643x    
[mpegts @ 081362c0] Invalid timestamps stream=1, pts=525783600, dts=525790800, size=4900
[mpegts @ 081362c0] Invalid timestamps stream=1, pts=525790800, dts=525794400, size=6404
[hls,applehttp @ 00a55200] Invalid timestamps stream=1, pts=525783600, dts=525790800, size=4900
[mp4 @ 084f5ec0] Invalid DTS: 155136 PTS: 154112 in output stream 0:0, replacing by guess
[hls,applehttp @ 00a55200] Invalid timestamps stream=1, pts=525790800, dts=525794400, size=6404
[mp4 @ 084f5ec0] Invalid DTS: 155648 PTS: 155136 in output stream 0:0, replacing by guess
[mpegts @ 081362c0] Invalid timestamps stream=1, pts=525798000, dts=525805200, size=6521
[mpegts @ 081362c0] Invalid timestamps stream=1, pts=525805200, dts=525808800, size=6705
[hls,applehttp @ 00a55200] Invalid timestamps stream=1, pts=525798000, dts=525805200, size=6521
[mp4 @ 084f5ec0] Invalid DTS: 157184 PTS: 156160 in output stream 0:0, replacing by guess
[hls,applehttp @ 00a55200] Invalid timestamps stream=1, pts=525805200, dts=525808800, size=6705
[mp4 @ 084f5ec0] Invalid DTS: 157696 PTS: 157184 in output stream 0:0, replacing by guess
[mpegts @ 081362c0] Invalid timestamps stream=1, pts=525812400, dts=525819600, size=7081
[mpegts @ 081362c0] Invalid timestamps stream=1, pts=525819600, dts=525823200, size=7995
[hls,applehttp @ 00a55200] Invalid timestamps stream=1, pts=525812400, dts=525819600, size=7081
[mp4 @ 084f5ec0] Invalid DTS: 159232 PTS: 158208 in output stream 0:0, replacing by guess
[hls,applehttp @ 00a55200] Invalid timestamps stream=1, pts=525819600, dts=525823200, size=7995
[mp4 @ 084f5ec0] Invalid DTS: 159744 PTS: 159232 in output stream 0:0, replacing by guess
[mpegts @ 081362c0] Invalid timestamps stream=1, pts=525826800, dts=525834000, size=5892
[mpegts @ 081362c0] Invalid timestamps stream=1, pts=525834000, dts=525837600, size=6988
[hls,applehttp @ 00a55200] Invalid timestamps stream=1, pts=525826800, dts=525834000, size=5892
[mp4 @ 084f5ec0] Invalid DTS: 161280 PTS: 160256 in output stream 0:0, replacing by guess
[hls,applehttp @ 00a55200] Invalid timestamps stream=1, pts=525834000, dts=525837600, size=6988
[mpegts @ 081362c0] Invalid timestamps stream=1, pts=525841200, dts=525848400, size=6085
[mp4 @ 084f5ec0] Invalid DTS: 161792 PTS: 161280 in output stream 0:0, replacing by guess
[mpegts @ 081362c0] Invalid timestamps stream=1, pts=525848400, dts=525852000, size=7040
[hls,applehttp @ 00a55200] Invalid timestamps stream=1, pts=525841200, dts=525848400, size=6085
[mp4 @ 084f5ec0] Invalid DTS: 163328 PTS: 162304 in output stream 0:0, replacing by guess
[hls,applehttp @ 00a55200] Invalid timestamps stream=1, pts=525848400, dts=525852000, size=7040
[mp4 @ 084f5ec0] Invalid DTS: 163840 PTS: 163328 in output stream 0:0, replacing by guess
[mpegts @ 081362c0] Invalid timestamps stream=1, pts=525855600, dts=525862800, size=4927
[mpegts @ 081362c0] Invalid timestamps stream=1, pts=525862800, dts=525866400, size=5955
[hls,applehttp @ 00a55200] Invalid timestamps stream=1, pts=525855600, dts=525862800, size=4927
[hls,applehttp @ 00a55200] Invalid timestamps stream=1, pts=525862800, dts=525866400, size=5955
[mp4 @ 084f5ec0] Invalid DTS: 165376 PTS: 164352 in output stream 0:0, replacing by guess
[mp4 @ 084f5ec0] Invalid DTS: 165888 PTS: 165376 in output stream 0:0, replacing by guess
frame=  325 fps= 16 q=-1.0 size=    3840kB time=00:00:12.92 bitrate=2434.9kbits/s speed=0.637x    
[mpegts @ 081362c0] Invalid timestamps stream=1, pts=525870000, dts=525877200, size=4924
[mpegts @ 081362c0] Invalid timestamps stream=1, pts=525877200, dts=525880800, size=6144
[hls,applehttp @ 00a55200] Invalid timestamps stream=1, pts=525870000, dts=525877200, size=4924
[mp4 @ 084f5ec0] Invalid DTS: 167424 PTS: 166400 in output stream 0:0, replacing by guess
[hls,applehttp @ 00a55200] Invalid timestamps stream=1, pts=525877200, dts=525880800, size=6144
[mp4 @ 084f5ec0] Invalid DTS: 167936 PTS: 167424 in output stream 0:0, replacing by guess
[mpegts @ 081362c0] Invalid timestamps stream=1, pts=525884400, dts=525891600, size=5065
[mpegts @ 081362c0] Invalid timestamps stream=1, pts=525891600, dts=525895200, size=6775
[hls,applehttp @ 00a55200] Invalid timestamps stream=1, pts=525884400, dts=525891600, size=5065
[hls,applehttp @ 00a55200] Invalid timestamps stream=1, pts=525891600, dts=525895200, size=6775
[mp4 @ 084f5ec0] Invalid DTS: 169472 PTS: 168448 in output stream 0:0, replacing by guess
[mp4 @ 084f5ec0] Invalid DTS: 169984 PTS: 169472 in output stream 0:0, replacing by guess
[mpegts @ 081362c0] Invalid timestamps stream=1, pts=525898800, dts=525906000, size=5335
[mpegts @ 081362c0] Invalid timestamps stream=1, pts=525906000, dts=525909600, size=6684
[hls,applehttp @ 00a55200] Invalid timestamps stream=1, pts=525898800, dts=525906000, size=5335
[mp4 @ 084f5ec0] Invalid DTS: 171520 PTS: 170496 in output stream 0:0, replacing by guess
[hls,applehttp @ 00a55200] Invalid timestamps stream=1, pts=525906000, dts=525909600, size=6684
[mpegts @ 081362c0] Invalid timestamps stream=1, pts=525913200, dts=525920400, size=4957
[mpegts @ 081362c0] Invalid timestamps stream=1, pts=525920400, dts=525924000, size=7679
[hls,applehttp @ 00a55200] Invalid timestamps stream=1, pts=525913200, dts=525920400, size=4957
[mp4 @ 084f5ec0] Invalid DTS: 172032 PTS: 171520 in output stream 0:0, replacing by guess
[mp4 @ 084f5ec0] Invalid DTS: 173568 PTS: 172544 in output stream 0:0, replacing by guess
[hls,applehttp @ 00a55200] Invalid timestamps stream=1, pts=525920400, dts=525924000, size=7679
[mp4 @ 084f5ec0] Invalid DTS: 174080 PTS: 173568 in output stream 0:0, replacing by guess
[mpegts @ 081362c0] Invalid timestamps stream=1, pts=525927600, dts=525934800, size=4873
[mpegts @ 081362c0] Invalid timestamps stream=1, pts=525934800, dts=525938400, size=7207
[hls,applehttp @ 00a55200] Invalid timestamps stream=1, pts=525927600, dts=525934800, size=4873
[mp4 @ 084f5ec0] Invalid DTS: 175616 PTS: 174592 in output stream 0:0, replacing by guess
frame=  344 fps= 17 q=-1.0 size=    4096kB time=00:00:13.68 bitrate=2452.9kbits/s speed=0.658x    
[hls,applehttp @ 00a55200] Invalid timestamps stream=1, pts=525934800, dts=525938400, size=7207
[mp4 @ 084f5ec0] Invalid DTS: 176128 PTS: 175616 in output stream 0:0, replacing by guess
[mpegts @ 081362c0] Invalid timestamps stream=1, pts=525942000, dts=525949200, size=5117
[mpegts @ 081362c0] Invalid timestamps stream=1, pts=525949200, dts=525952800, size=6433
[hls,applehttp @ 00a55200] Invalid timestamps stream=1, pts=525942000, dts=525949200, size=5117
[mp4 @ 084f5ec0] Invalid DTS: 177664 PTS: 176640 in output stream 0:0, replacing by guess
[hls,applehttp @ 00a55200] Invalid timestamps stream=1, pts=525949200, dts=525952800, size=6433
[mp4 @ 084f5ec0] Invalid DTS: 178176 PTS: 177664 in output stream 0:0, replacing by guess
[mpegts @ 081362c0] Invalid timestamps stream=1, pts=525963600, dts=525970800, size=4774
[mpegts @ 081362c0] Invalid timestamps stream=1, pts=525970800, dts=525974400, size=4369
[hls,applehttp @ 00a55200] Invalid timestamps stream=1, pts=525963600, dts=525970800, size=4774
[mp4 @ 084f5ec0] Invalid DTS: 180736 PTS: 179712 in output stream 0:0, replacing by guess
[hls,applehttp @ 00a55200] Invalid timestamps stream=1, pts=525970800, dts=525974400, size=4369
[mp4 @ 084f5ec0] Invalid DTS: 181248 PTS: 180736 in output stream 0:0, replacing by guess
[mpegts @ 081362c0] Invalid timestamps stream=1, pts=525978000, dts=525985200, size=4556
[mpegts @ 081362c0] Invalid timestamps stream=1, pts=525985200, dts=525988800, size=5409
[hls,applehttp @ 00a55200] Invalid timestamps stream=1, pts=525978000, dts=525985200, size=4556
frame=  357 fps= 16 q=-1.0 size=    4352kB time=00:00:14.24 bitrate=2503.7kbits/s speed=0.639x    
[mp4 @ 084f5ec0] Invalid DTS: 182784 PTS: 181760 in output stream 0:0, replacing by guess
[hls,applehttp @ 00a55200] Invalid timestamps stream=1, pts=525985200, dts=525988800, size=5409
[mp4 @ 084f5ec0] Invalid DTS: 183296 PTS: 182784 in output stream 0:0, replacing by guess
[mpegts @ 081362c0] Invalid timestamps stream=1, pts=525992400, dts=525999600, size=6078
[mpegts @ 081362c0] Invalid timestamps stream=1, pts=525999600, dts=526003200, size=6195
[hls,applehttp @ 00a55200] Invalid timestamps stream=1, pts=525992400, dts=525999600, size=6078
[hls,applehttp @ 00a55200] Invalid timestamps stream=1, pts=525999600, dts=526003200, size=6195
[mp4 @ 084f5ec0] Invalid DTS: 184832 PTS: 183808 in output stream 0:0, replacing by guess
[mp4 @ 084f5ec0] Invalid DTS: 185344 PTS: 184832 in output stream 0:0, replacing by guess
[mpegts @ 081362c0] Invalid timestamps stream=1, pts=526006800, dts=526014000, size=5368
[mpegts @ 081362c0] Invalid timestamps stream=1, pts=526014000, dts=526017600, size=7208
[hls,applehttp @ 00a55200] Invalid timestamps stream=1, pts=526006800, dts=526014000, size=5368
[mp4 @ 084f5ec0] Invalid DTS: 186880 PTS: 185856 in output stream 0:0, replacing by guess
[hls,applehttp @ 00a55200] Invalid timestamps stream=1, pts=526014000, dts=526017600, size=7208
[mp4 @ 084f5ec0] Invalid DTS: 187392 PTS: 186880 in output stream 0:0, replacing by guess
[mpegts @ 081362c0] Invalid timestamps stream=1, pts=526021200, dts=526028400, size=5907
[mpegts @ 081362c0] Invalid timestamps stream=1, pts=526028400, dts=526032000, size=6914
[hls,applehttp @ 00a55200] Invalid timestamps stream=1, pts=526021200, dts=526028400, size=5907
[mp4 @ 084f5ec0] Invalid DTS: 188928 PTS: 187904 in output stream 0:0, replacing by guess
[hls,applehttp @ 00a55200] Invalid timestamps stream=1, pts=526028400, dts=526032000, size=6914
[mp4 @ 084f5ec0] Invalid DTS: 189440 PTS: 188928 in output stream 0:0, replacing by guess
[mpegts @ 081362c0] Invalid timestamps stream=1, pts=526035600, dts=526042800, size=5682
frame=  373 fps= 16 q=-1.0 size=    4352kB time=00:00:14.88 bitrate=2396.0kbits/s speed=0.652x    
[mpegts @ 081362c0] Invalid timestamps stream=1, pts=526042800, dts=526046400, size=6845
[hls,applehttp @ 00a55200] Invalid timestamps stream=1, pts=526035600, dts=526042800, size=5682
[hls,applehttp @ 00a55200] Invalid timestamps stream=1, pts=526042800, dts=526046400, size=6845
[mpegts @ 081362c0] Invalid timestamps stream=1, pts=526050000, dts=526057200, size=5781
[mp4 @ 084f5ec0] Invalid DTS: 190976 PTS: 189952 in output stream 0:0, replacing by guess
[mp4 @ 084f5ec0] Invalid DTS: 191488 PTS: 190976 in output stream 0:0, replacing by guess
[mpegts @ 081362c0] Invalid timestamps stream=1, pts=526057200, dts=526060800, size=7246
[hls,applehttp @ 00a55200] Invalid timestamps stream=1, pts=526050000, dts=526057200, size=5781
[mp4 @ 084f5ec0] Invalid DTS: 193024 PTS: 192000 in output stream 0:0, replacing by guess
[hls,applehttp @ 00a55200] Invalid timestamps stream=1, pts=526057200, dts=526060800, size=7246
[mp4 @ 084f5ec0] Invalid DTS: 193536 PTS: 193024 in output stream 0:0, replacing by guess
[mpegts @ 081362c0] Invalid timestamps stream=1, pts=526064400, dts=526071600, size=7333
[mpegts @ 081362c0] Invalid timestamps stream=1, pts=526071600, dts=526075200, size=7775
[hls,applehttp @ 00a55200] Invalid timestamps stream=1, pts=526064400, dts=526071600, size=7333
[mp4 @ 084f5ec0] Invalid DTS: 195072 PTS: 194048 in output stream 0:0, replacing by guess
[hls,applehttp @ 00a55200] Invalid timestamps stream=1, pts=526071600, dts=526075200, size=7775
[mp4 @ 084f5ec0] Invalid DTS: 195584 PTS: 195072 in output stream 0:0, replacing by guess
[mpegts @ 081362c0] Invalid timestamps stream=1, pts=526078800, dts=526086000, size=6194
[mpegts @ 081362c0] Invalid timestamps stream=1, pts=526086000, dts=526089600, size=6981
[hls,applehttp @ 00a55200] Invalid timestamps stream=1, pts=526078800, dts=526086000, size=6194
[mp4 @ 084f5ec0] Invalid DTS: 197120 PTS: 196096 in output stream 0:0, replacing by guess
[hls,applehttp @ 00a55200] Invalid timestamps stream=1, pts=526086000, dts=526089600, size=6981
[mp4 @ 084f5ec0] Invalid DTS: 197632 PTS: 197120 in output stream 0:0, replacing by guess
[mpegts @ 081362c0] Invalid timestamps stream=1, pts=526093200, dts=526100400, size=5569
[mpegts @ 081362c0] Invalid timestamps stream=1, pts=526100400, dts=526104000, size=6501
[hls,applehttp @ 00a55200] Invalid timestamps stream=1, pts=526093200, dts=526100400, size=5569
[hls,applehttp @ 00a55200] Invalid timestamps stream=1, pts=526100400, dts=526104000, size=6501
[mp4 @ 084f5ec0] Invalid DTS: 199168 PTS: 198144 in output stream 0:0, replacing by guess
[mp4 @ 084f5ec0] Invalid DTS: 199680 PTS: 199168 in output stream 0:0, replacing by guess
[mpegts @ 081362c0] Invalid timestamps stream=1, pts=526107600, dts=526114800, size=6056
[mpegts @ 081362c0] Invalid timestamps stream=1, pts=526114800, dts=526118400, size=7566
[hls,applehttp @ 00a55200] Invalid timestamps stream=1, pts=526107600, dts=526114800, size=6056
[mp4 @ 084f5ec0] Invalid DTS: 201216 PTS: 200192 in output stream 0:0, replacing by guess
[hls,applehttp @ 00a55200] Invalid timestamps stream=1, pts=526114800, dts=526118400, size=7566
[mp4 @ 084f5ec0] Invalid DTS: 201728 PTS: 201216 in output stream 0:0, replacing by guess
frame=  395 fps= 17 q=-1.0 size=    4864kB time=00:00:15.75 bitrate=2529.2kbits/s speed=0.675x    
[mpegts @ 081362c0] Invalid timestamps stream=1, pts=526122000, dts=526129200, size=6576
[mpegts @ 081362c0] Invalid timestamps stream=1, pts=526129200, dts=526132800, size=7810
[hls,applehttp @ 00a55200] Invalid timestamps stream=1, pts=526122000, dts=526129200, size=6576
[hls,applehttp @ 00a55200] Invalid timestamps stream=1, pts=526129200, dts=526132800, size=7810
frame=  397 fps= 16 q=-1.0 size=    4864kB time=00:00:15.84 bitrate=2515.6kbits/s speed=0.645x    
[mp4 @ 084f5ec0] Invalid DTS: 203264 PTS: 202240 in output stream 0:0, replacing by guess
[mp4 @ 084f5ec0] Invalid DTS: 203776 PTS: 203264 in output stream 0:0, replacing by guess
[mpegts @ 081362c0] Invalid timestamps stream=1, pts=526143600, dts=526150800, size=6194
[mpegts @ 081362c0] Invalid timestamps stream=1, pts=526150800, dts=526154400, size=6910
[hls,applehttp @ 00a55200] Invalid timestamps stream=1, pts=526143600, dts=526150800, size=6194
[hls,applehttp @ 00a55200] Invalid timestamps stream=1, pts=526150800, dts=526154400, size=6910
[mp4 @ 084f5ec0] Invalid DTS: 206336 PTS: 205312 in output stream 0:0, replacing by guess
[mp4 @ 084f5ec0] Invalid DTS: 206848 PTS: 206336 in output stream 0:0, replacing by guess
[mpegts @ 081362c0] Invalid timestamps stream=1, pts=526158000, dts=526165200, size=7538
[mpegts @ 081362c0] Invalid timestamps stream=1, pts=526165200, dts=526168800, size=7091
[hls,applehttp @ 00a55200] Invalid timestamps stream=1, pts=526158000, dts=526165200, size=7538
[mp4 @ 084f5ec0] Invalid DTS: 208384 PTS: 207360 in output stream 0:0, replacing by guess
[hls,applehttp @ 00a55200] Invalid timestamps stream=1, pts=526165200, dts=526168800, size=7091
[mp4 @ 084f5ec0] Invalid DTS: 208896 PTS: 208384 in output stream 0:0, replacing by guess
frame=  410 fps= 16 q=-1.0 size=    4864kB time=00:00:16.36 bitrate=2435.6kbits/s speed=0.653x    
[mpegts @ 081362c0] Invalid timestamps stream=1, pts=526172400, dts=526179600, size=6492
[mpegts @ 081362c0] Invalid timestamps stream=1, pts=526179600, dts=526183200, size=7131
[hls,applehttp @ 00a55200] Invalid timestamps stream=1, pts=526172400, dts=526179600, size=6492
[hls,applehttp @ 00a55200] Invalid timestamps stream=1, pts=526179600, dts=526183200, size=7131
[mpegts @ 081362c0] Invalid timestamps stream=1, pts=526186800, dts=526194000, size=6574
[mp4 @ 084f5ec0] Invalid DTS: 210432 PTS: 209408 in output stream 0:0, replacing by guess
[mp4 @ 084f5ec0] Invalid DTS: 210944 PTS: 210432 in output stream 0:0, replacing by guess
[mpegts @ 081362c0] Invalid timestamps stream=1, pts=526194000, dts=526197600, size=8291
[hls,applehttp @ 00a55200] Invalid timestamps stream=1, pts=526186800, dts=526194000, size=6574
[mp4 @ 084f5ec0] Invalid DTS: 212480 PTS: 211456 in output stream 0:0, replacing by guess
[hls,applehttp @ 00a55200] Invalid timestamps stream=1, pts=526194000, dts=526197600, size=8291
[mp4 @ 084f5ec0] Invalid DTS: 212992 PTS: 212480 in output stream 0:0, replacing by guess
[mpegts @ 081362c0] Invalid timestamps stream=1, pts=526201200, dts=526208400, size=6750
[mpegts @ 081362c0] Invalid timestamps stream=1, pts=526208400, dts=526212000, size=8482
[hls,applehttp @ 00a55200] Invalid timestamps stream=1, pts=526201200, dts=526208400, size=6750
[mp4 @ 084f5ec0] Invalid DTS: 214528 PTS: 213504 in output stream 0:0, replacing by guess
[hls,applehttp @ 00a55200] Invalid timestamps stream=1, pts=526208400, dts=526212000, size=8482
[mp4 @ 084f5ec0] Invalid DTS: 215040 PTS: 214528 in output stream 0:0, replacing by guess
[mpegts @ 081362c0] Invalid timestamps stream=1, pts=526215600, dts=526222800, size=6118
[mpegts @ 081362c0] Invalid timestamps stream=1, pts=526222800, dts=526226400, size=7386
[hls,applehttp @ 00a55200] Invalid timestamps stream=1, pts=526215600, dts=526222800, size=6118
[mp4 @ 084f5ec0] Invalid DTS: 216576 PTS: 215552 in output stream 0:0, replacing by guess
[hls,applehttp @ 00a55200] Invalid timestamps stream=1, pts=526222800, dts=526226400, size=7386
[mp4 @ 084f5ec0] Invalid DTS: 217088 PTS: 216576 in output stream 0:0, replacing by guess
[mpegts @ 081362c0] Invalid timestamps stream=1, pts=526230000, dts=526237200, size=6107
[mpegts @ 081362c0] Invalid timestamps stream=1, pts=526237200, dts=526240800, size=7940
[hls,applehttp @ 00a55200] Invalid timestamps stream=1, pts=526230000, dts=526237200, size=6107
[mp4 @ 084f5ec0] Invalid DTS: 218624 PTS: 217600 in output stream 0:0, replacing by guess
[hls,applehttp @ 00a55200] Invalid timestamps stream=1, pts=526237200, dts=526240800, size=7940
[mp4 @ 084f5ec0] Invalid DTS: 219136 PTS: 218624 in output stream 0:0, replacing by guess
frame=  430 fps= 16 q=-1.0 size=    5120kB time=00:00:17.16 bitrate=2444.3kbits/s speed=0.645x    
[mpegts @ 081362c0] Invalid timestamps stream=1, pts=526244400, dts=526251600, size=6720
[mpegts @ 081362c0] Invalid timestamps stream=1, pts=526251600, dts=526255200, size=7980
[hls,applehttp @ 00a55200] Invalid timestamps stream=1, pts=526244400, dts=526251600, size=6720
[mp4 @ 084f5ec0] Invalid DTS: 220672 PTS: 219648 in output stream 0:0, replacing by guess
[hls,applehttp @ 00a5520
Antwoord
#15
Ik kan aan beide logboeken zien dat er iets mis is met de input van de video, mogelijk ligt dit probleem aan de kant van RTL. Doet dit probleem zich voor bij iederen uitzending of bij specifieke afleveringen?
Antwoord
#16
Sommige afleveringen doen het wel, maar de meeste niet. Zie mijn eerdere reactie (nr 9) met daarin een link die het wel doet en één die het niet doet.
Antwoord
#17
Sinds de eerste melding is praktisch geen uitzending van Frost te downloaden. Ook de nieuwste aflevering heeft dit probleem. Link: https://www.rtl.nl/video/98c5f571-e66c-3...768115b47/
Antwoord
#18
(27 September 2018, 12:07)erikderijk schreef: Sinds de eerste melding is praktisch geen uitzending van Frost te downloaden. Ook de nieuwste aflevering heeft dit probleem. Link: https://www.rtl.nl/video/98c5f571-e66c-3...768115b47/

ik kan ook alleen nog sommige rtl-programma's downloaden. Hollands Next Top Model bij voorbeeld lukt nooit...
Antwoord
#19
(02 October 2018, 22:36)Meli schreef: ik kan ook alleen nog sommige rtl-programma's downloaden. Hollands Next Top Model bij voorbeeld lukt nooit...

Is er dan geen mogelijkheid om toch te downloaden? All you need is Love kan ik ook niet downloaden en dit vind ik echt erg jammer.
Antwoord
#20
hier ook al maanden problemen met bepaalde progamma,s zoals undercover boss en kopen,klussen,cashen
download begint en na 4-5 procent is download voltooid maar progamma duurt slecht enkele tientallen seconden.
Antwoord


Ga naar locatie:


Gebruikers die dit topic lezen: 1 gast(en)