Welkom gast! Registreren
Geluid rtlxl niet synchroon
#41
(28 September 2015, 9:29)Ronaldo123 schreef: Ik heb de beta geinstalleerd : 2.8.1.18 BETA.
Toen heb ik adaptive video's aangevinkt.

Als ik een video van RTLXL wil downloaden, lijkt alles goed te gaan, maar het vullen van het progress balkje duurt 1 seconde, waarna hij "download voltooid" aangeeft. Dan heeft ie maar 1 seconde van de aflevering gedownload.

Tips

Om welke URL gaat het? En kun je een logboek aanmaken en hier posten?
Antwoord
#42
het gaat om url 
http://www.rtlxl.nl/#!/wie-is-de-sjaak-3...1bc0c95db0
force adaptive video aangevinkt
heb precies het zelfde probleem


of je download stop na 1 sec
of als je force progressie
is je geluid is niet syncro

hoop dat je hier wat aan heb

van rtlx is zo niks meer goed te bekijken

Code:
Start (IC1pICJodHRwOi8vbWFuaWZlc3QudXMucnRsLm5sLzEwL3YxNjYvYWVzL2FkYXB0aXZlL2NvbXBvbmVudHMvdmlkZW9yZWNvcmRlci8zNC8zNDU4MjkvMzQ1ODMwLzA5YzgwMjBmLWY0NmYtNGM2MS1iZTg0LTkzMWJjMGM5NWRiMC5zc20vMDljODAyMGYtZjQ2Zi00YzYxLWJlODQtOTMxYmMwYzk1ZGIwLmlzbS8wOWM4MDIwZi1mNDZmLTRjNjEtYmU4NC05MzFiYzBjOTVkYjAtYXVkaW9fZW5nPTEyODAwMC12aWRlbz0yNTIwMDAwLm0zdTgiICAtaSAiQzpcVXNlcnNcTWFhcnRlblxBcHBEYXRhXFJvYW1pbmdcR2VtaXN0RG93bmxvYWRlclxtZXRhZGF0YS5tZXRhIiAtbWFwX2NoYXB0ZXJzIDEgLWMgY29weSAteSAtYWMgMiAtdGhyZWFkcyAwIC1ic2Y6YSBhYWNfYWR0c3RvYXNjICAgLXIgMjUgLW1ldGFkYXRhIHRpdGxlPSJXaWUgSXMgRGUgU2phYWs/IC0gQWZsLiAzMyIgLW1ldGFkYXRhIHllYXI9IjIwMTUiIC1tZXRhZGF0YSBjb3B5cmlnaHQ9IihjKSBSVEw1LCAyMDE1IiAtbWV0YWRhdGEgZGVzY3JpcHRpb249Ikh1bW9yaXN0aXNjaCBwcm9ncmFtbWEgd2FhcmluIFJpY2sgQnJhbmRzdGVkZXIsIFRlc3MgTWlsbmUsIFZlcm9uaWNhIHZhbiBIb29nZGFsZW0gZW4gSmF5SmF5IEJvc2tlIGhldCBoZWxlIGxhbmQgZG9vcnJlaXplbiwgb3Agem9layBuYWFyIG1lbnNlbiBkaWUgdm9vciAyNTAgZXVybyBiaXphcnJlLCBncmFwcGlnZSBlbiBnP25hbnRlIG9wZHJhY2h0ZW4gd2lsbGVuIHVpdHZvZXJlbi4iIC1tZXRhZGF0YSBzaG93PSJXaWUgSXMgRGUgU2phYWs/IiAtbWV0YWRhdGEgbmV0d29yaz0iUlRMNSIgLW1ldGFkYXRhIG1lZGlhX3R5cGU9MTAgLW1ldGFkYXRhIHNlYXNvbl9udW1iZXI9MSAtbWV0YWRhdGEgZXBpc29kZV9pZD0iMzMiIC1tZXRhZGF0YSBlcGlzb2RlX3Nob3J0PTMzICJDOlxVc2Vyc1xNYWFydGVuXERlc2t0b3BcV2llIElzIERlIFNqYWFrIC0gQWZsIDMzIFsyMDE1MTAyMV0ubXA0Ig)
ffmpeg version N-75238-g1416370 Copyright (c) 2000-2015 the FFmpeg developers
  built with gcc 4.8.0 (GCC)
  configuration: --arch=x86 --target-os=mingw32 --cross-prefix=/home/-/Downloads/ffmpeg/sandbox/mingw-w64-i686/bin/i686-w64-mingw32- --pkg-config=pkg-config --enable-gpl --enable-libx264 --enable-avisynth --enable-libmp3lame --enable-version3 --enable-zlib --enable-librtmp --enable-libopenjpeg --enable-gnutls --enable-libfreetype --enable-fontconfig --enable-libass --disable-w32threads --enable-libvo-aacenc --enable-bzlib --enable-libxavs --extra-cflags=-DPTW32_STATIC_LIB --enable-libopencore-amrwb --enable-libvo-amrwbenc --enable-libsoxr --enable-libutvideo --enable-static --disable-shared --extra-cflags=
  libavutil      55.  2.100 / 55.  2.100
  libavcodec     57.  1.100 / 57.  1.100
  libavformat    57.  0.100 / 57.  0.100
  libavdevice    57.  0.100 / 57.  0.100
  libavfilter     6.  1.100 /  6.  1.100
  libswscale      4.  0.100 /  4.  0.100
  libswresample   2.  0.100 /  2.  0.100
  libpostproc    54.  0.100 / 54.  0.100
[http @ 01f05720] No trailing CRLF found in HTTP header.
Input #0, hls,applehttp, from 'http://manifest.us.rtl.nl/10/v166/aes/adaptive/components/videorecorder/34/345829/345830/09c8020f-f46f-4c61-be84-931bc0c95db0.ssm/09c8020f-f46f-4c61-be84-931bc0c95db0.ism/09c8020f-f46f-4c61-be84-931bc0c95db0-audio_eng=128000-video=2520000.m3u8':
  Duration: N/A, start: 1570.810667, bitrate: N/A
  Program 0
    Metadata:
      variant_bitrate : 0
    Stream #0:0: Audio: aac (LC) ([15][0][0][0] / 0x000F), 48000 Hz, stereo, fltp, 131 kb/s
    Stream #0:1: Video: h264 (High) ([27][0][0][0] / 0x001B), yuv420p, 912x512 [SAR 512:513 DAR 16:9], 25 fps, 25 tbr, 90k tbn, 50 tbc
Input #1, ffmetadata, from 'C:\Users\Maarten\AppData\Roaming\GemistDownloader\metadata.meta':
  Duration: 00:26:21.40, start: 0.000000, bitrate: N/A
    Chapter #1:0: start 0.000000, end 753.480000
    Metadata:
      title           : Blok 1
    Chapter #1:1: start 753.480000, end 1581.396000
    Metadata:
      title           : Blok 2
[mp4 @ 043b0560] Codec for stream 0 does not use global headers but container format requires global headers
[mp4 @ 043b0560] Codec for stream 1 does not use global headers but container format requires global headers
Output #0, mp4, to 'C:\Users\Maarten\Desktop\Wie Is De Sjaak - Afl 33 [20151021].mp4':
  Metadata:
    title           : Wie Is De Sjaak? - Afl. 33
    year            : 2015
    copyright       : (c) RTL5, 2015
    description     : Humoristisch programma waarin Rick Brandsteder, Tess Milne, Veronica van Hoogdalem en JayJay Boske het hele land doorreizen, op zoek naar mensen die voor 250 euro bizarre, grappige en gênante opdrachten willen uitvoeren.
    show            : Wie Is De Sjaak?
    network         : RTL5
    media_type      : 10
    season_number   : 1
    episode_id      : 33
    episode_short   : 33
    encoder         : Lavf57.0.100
    Chapter #0:0: start 0.000000, end 753.480000
    Metadata:
      title           : Blok 1
    Chapter #0:1: start 753.480000, end 1581.396000
    Metadata:
      title           : Blok 2
    Stream #0:0: Video: h264 ([33][0][0][0] / 0x0021), yuv420p, 912x512 [SAR 512:513 DAR 16:9], q=2-31, 25 fps, 25 tbr, 12800 tbn, 25 tbc
    Stream #0:1: Audio: aac ([64][0][0][0] / 0x0040), 48000 Hz, stereo, 131 kb/s
Stream mapping:
  Stream #0:1 -> #0:0 (copy)
  Stream #0:0 -> #0:1 (copy)
Press [q] to stop, [?] for help
frame=  419 fps=0.0 q=-1.0 size=    5402kB time=00:00:16.76 bitrate=2640.3kbits/s   
[http @ 01feed60] HTTP error 404 File or directory not found.
[crypto @ 01f05da0] Unable to open resource: [url=http://217.118.160.67/10/v166/aes/adaptive/components/videorecorder/34/345829/345830/09c8020f-f46f]http://217.118.160.67/10/v166/aes/adaptive/components/videorecorder/34/345829/345830/09c8020f-f46f[/url]
[hls,applehttp @ 01efb640] Failed to open segment of playlist 0
frame=  500 fps=0.0 q=-1.0 Lsize=    6576kB time=00:00:20.00 bitrate=2692.9kbits/s   
video:6256kB audio:306kB subtitle:0kB other streams:0kB global headers:0kB muxing overhead: 0.214715%
Antwoord
#43
hallo,

het is weer verkeerd met de synchronisatie van het geluid bij mij van downloads via rtlxl.
dan gaat het goed en dan weer niet.
ik werk met versie 2.9.0.3
ik heb alle instellingen uitgeprobeerd maar dat mag niet baten.
ook met gemistdownloader.nl is dit hetzelfde probleem.
wie heeft er een oplossing voor mij.
ik download bijv. http://rtlxl.nl/#!/herman-martijn-op-de-...741c2fee6c
alvast hartelijk bedankt
Antwoord
#44
(19 July 2016, 9:44)wessel1961 schreef: hallo,

het is weer verkeerd met de synchronisatie van het geluid bij mij van downloads via rtlxl.
dan gaat het goed en dan weer niet.
ik werk met versie 2.9.0.3
ik heb alle instellingen uitgeprobeerd maar dat mag niet baten.
ook met gemistdownloader.nl is dit hetzelfde probleem.
wie heeft er een oplossing voor mij.
ik download bijv. http://rtlxl.nl/#!/herman-martijn-op-de-...741c2fee6c
alvast hartelijk bedankt

Je weet zeker dat Forceer Adaptive Videos het probleem niet oplost?
Antwoord
#45
elke instelling lijkt het niet te verhelpen
is afwachten thanks
Antwoord


Ga naar locatie:


Gebruikers die dit topic lezen: 1 gast(en)