Welkom gast! Registreren
GemistDownloader 2.9.0.5  - RTLXL: Onbekende fout opgetreden
#31
Ik kon voorheen wel voetbal Inside en The Voice downloaden, maar sinds een week krijg ik onbekende fout. Woon in Spanje. Ook update gedaan, maar zelfde fout. Het weer en GTST lukt wel.
#32
(04 February 2018, 11:15)Herman70 schreef: Ik kon voorheen wel voetbal Inside en The Voice downloaden, maar sinds een week krijg ik onbekende fout. Woon in Spanje. Ook update gedaan, maar zelfde fout. Het weer en GTST lukt wel.

Ik woon ook in Spanje en kan gewoon Voetbal Inside downloaden met gebruik van een VPN.

   
Met vriendelijke groet, penthe
#33
(04 February 2018, 12:52)penthe schreef: Ik woon ook in Spanje en kan gewoon Voetbal Inside downloaden met gebruik van een VPN.

Link voor download is zelfde, Alleen ik krijg bij download mislukt, onbekende fout opgetreden. 
Heb zonet een ADD-on geïnstalleerd in Firefox. Kan nu wel video starten, maar nog steeds niet downloaden. Zien kan ik het in ieder geval nu wel.
#34
Dat komt omdat GemistDownloader buiten de browser om werkt, je zult een VPN op je computer moeten installeren om met GemistDownloader Voetbal Inside te kunnen downloaden.
Met vriendelijke groet, penthe
#35
Welke VPN is hiervoor het beste en hoe ermee te werken?
Ik heb totaal geen kaas gegeten van dat soort programma's, en bij de meeste VPN programma's die ik al heb opgezocht moet je na een tijdje geld betalen.
#36
Dat klopt een VPN kost een paar euro per maand. Maar ik kon met CyberGhost VPN elke keer 3 uur lang een Nederlands IP krijgen en daarna moest ik weer opnieuw verbinden, ook moest ik wachten voor de verbinding gemaakt kon worden met een zogenaamd zoveel wachtende voor u maar het is het proberen waard. Als het nog steeds zo werkt is het toch een soort van gratis oplossing.
Met vriendelijke groet, penthe
#37
Ik woon in Afrika en maak met veel plezier gebruik van het programma GemistDownloader. Hartelijk dank hiervoor.
Sinds afgelopen week was het niet meer mogelijk om RTL-programma’s te downloaden. Ik heb een VPN verbinding aangeschaft en de programma’s van SBS en NPO gaan prima maar bij het downloaden van de RTL programma’s stopt het programma er mee na soms 2% of 13% te hebben gedownload.
Ik hoop dat u mij aan de hand van het logboek kan helpen.

Code:
tart (IC1oaWRlX2Jhbm5lciAtdXNlci1hZ2VudCAiTW96aWxsYS81LjAgKFdpbmRvd3MgTlQgNi4wOyBydjoyLjApIEdlY2tvLzIwMTAwMTAxIEZpcmVmb3gvNC4wIE9wZXJhIDEyLjE0IiAgLWkgImh0dHBzOi8vbWFuaWZlc3QyLnVzLnJ0bC5ubC8xMC92MTY2L2Flcy9hZGFwdGl2ZS9jb21wb25lbnRzL2h1aXN0dWlua2V1a2VuL2hlbHBtaWpubWFuaXNrbHVzc2VyLzMyNDk3MS8zNjJiNTk0MC1iMWNkLTM3YjEtYTY3NC03NmFiNWVhMDhjYTcuc3NtLzM2MmI1OTQwLWIxY2QtMzdiMS1hNjc0LTc2YWI1ZWEwOGNhNy5pc20vMzYyYjU5NDAtYjFjZC0zN2IxLWE2NzQtNzZhYjVlYTA4Y2E3LWF1ZGlvPTEyODAwMC12aWRlbz04OTAwMDAubTN1OCIgIC1pICJDOlxVc2Vyc1xnZXJkYVxBcHBEYXRhXFJvYW1pbmdcR2VtaXN0RG93bmxvYWRlclxtZXRhZGF0YS5tZXRhIiAtbWFwX2NoYXB0ZXJzIDEgLWMgY29weSAteSAtYWMgMiAtdGhyZWFkcyAwIC1ic2Y6YSBhYWNfYWR0c3RvYXNjICAgLXIgMjUgLW1ldGFkYXRhIGVuY29kZWRfYnk9IkdlbWlzdERvd25sb2FkZXIgMi45LjAuNSIgLW1ldGFkYXRhIHRpdGxlPSJBZmwuIDYiIC1tZXRhZGF0YSB5ZWFyPSIyMDE4IiAtbWV0YWRhdGEgY29weXJpZ2h0PSIoYykgUlRMOCwgMjAxOCIgLW1ldGFkYXRhIGRlc2NyaXB0aW9uPSJUaWVuIGphYXIgZ2VsZWRlbiBsZWVyZGUgZGUgQnJhemlsaWFhbnNlIEphcXVlbGluZSBib2VyZW56b29uIE1laW5kZXJ0IGtlbm5lbi4gVmlqZiBqYWFyIGxhdGVyIHRyb3V3ZGVuIHplLiBNZWluZGVydCB3b29uZGUgYWwgaGVlbCBsYW5nIG1ldCB6aWpuIG91ZGVycyBpbiBkZSBvdWRlIGJvZXJkZXJpai4gSGlqIGhlZWZ0IEphcXVlbGluZSBiZWxvb2ZkIG9tIGRlemUgb3AgdGUga25hcHBlbiwgbWFhciBpbm1pZGRlbHMgeml0dGVuIHplIG51IGFsIGphcmVuIGluIGVlbiBrb3VkZSBsb29kcy4gV2F0IGhvdWR0IGhlbSAuLi4iIC1tZXRhZGF0YSBzaG93PSJIZWxwLCBNaWpuIE1hbiBJcyBLbHVzc2VyISIgLW1ldGFkYXRhIG5ldHdvcms9IlJUTDgiIC1tZXRhZGF0YSBtZWRpYV90eXBlPTEwIC1tZXRhZGF0YSBzZWFzb25fbnVtYmVyPTkgLW1ldGFkYXRhIGVwaXNvZGVfaWQ9IjYiIC1tZXRhZGF0YSBlcGlzb2RlX3Nob3J0PTYgIkM6XFVzZXJzXGdlcmRhXFRWIFByb2dyYW1tYSdzXEFBQVxIZWxwLCBNaWpuIE1hbiBJcyBLbHVzc2VyISAtIEFmbCA2IFsyMDE4MDIwNF0ubXA0Ig)

[https @ 00a5ccc0] the user-agent option is deprecated, please use user_agent option
[hls,applehttp @ 00a5c260] Opening 'https://licenseservice.rtl.nl/aes/GetKey/362b5940-b1cd-37b1-a674-76ab5ea08ca7' for reading
[https @ 00cbd140] the user-agent option is deprecated, please use user_agent option
[hls,applehttp @ 00a5c260] Opening 'crypto+https://rtl-hls-aes-longtail.akamaized.net/10/v166/aes/adaptive/components/huistuinkeuken/helpmijnmanisklusser/324971/362b5940-b1cd-37b1-a674-76ab5ea08ca7.ssm/362b5940-b1cd-37b1-a674-76ab5ea08ca7.ism/362b5940-b1cd-37b1-a674-76ab5ea08ca7-audio=128000-video=890000-1.ts' for reading
[https @ 00cbd280] the user-agent option is deprecated, please use user_agent option
Input #0, hls,applehttp, from 'https://manifest2.us.rtl.nl/10/v166/aes/adaptive/components/huistuinkeuken/helpmijnmanisklusser/324971/362b5940-b1cd-37b1-a674-76ab5ea08ca7.ssm/362b5940-b1cd-37b1-a674-76ab5ea08ca7.ism/362b5940-b1cd-37b1-a674-76ab5ea08ca7-audio=128000-video=890000.m3u8':
 Duration: 00:43:15.00, start: 10.000000, bitrate: 0 kb/s
 Program 0
   Metadata:
     variant_bitrate : 0
   Stream #0:0: Audio: aac (LC) ([15][0][0][0] / 0x000F), 48000 Hz, stereo, fltp
   Metadata:
     variant_bitrate : 0
   Stream #0:1: Video: h264 (Main) ([27][0][0][0] / 0x001B), yuv420p, 512x288 [SAR 1:1 DAR 16:9], 25 fps, 25 tbr, 90k tbn, 50 tbc
   Metadata:
     variant_bitrate : 0
Input #1, ffmetadata, from 'C:\Users\gerda\AppData\Roaming\GemistDownloader\metadata.meta':
 Duration: 00:43:13.92, start: 0.000000, bitrate: N/A
   Chapter #1:0: start 0.000000, end 631.400000
   Metadata:
     title           : Blok 1
   Chapter #1:1: start 631.400000, end 1918.640000
   Metadata:
     title           : Blok 2
   Chapter #1:2: start 1918.640000, end 2593.920000
   Metadata:
     title           : Blok 3
Output #0, mp4, to 'C:\Users\gerda\TV Programma's\AAA\Help, Mijn Man Is Klusser! - Afl 6 [20180204].mp4':
 Metadata:
   encoded_by      : GemistDownloader 2.9.0.5
   title           : Afl. 6
   year            : 2018
   copyright       : (c) RTL8, 2018
   description     : Tien jaar geleden leerde de Braziliaanse Jaqueline boerenzoon Meindert kennen. Vijf jaar later trouwden ze. Meindert woonde al heel lang met zijn ouders in de oude boerderij. Hij heeft Jaqueline beloofd om deze op te knappen, maar inmiddels zitten ze nu a
   show            : Help, Mijn Man Is Klusser!
   network         : RTL8
   media_type      : 10
   season_number   : 9
   episode_id      : 6
   episode_short   : 6
   encoder         : Lavf57.84.100
   Chapter #0:0: start 0.000000, end 631.400000
   Metadata:
     title           : Blok 1
   Chapter #0:1: start 631.400000, end 1918.640000
   Metadata:
     title           : Blok 2
   Chapter #0:2: start 1918.640000, end 2593.920000
   Metadata:
     title           : Blok 3
   Stream #0:0: Video: h264 (Main) (avc1 / 0x31637661), yuv420p, 512x288 [SAR 1:1 DAR 16:9], q=2-31, 25 fps, 25 tbr, 12800 tbn, 25 tbc
   Metadata:
     variant_bitrate : 0
   Stream #0:1: Audio: aac (LC) (mp4a / 0x6134706D), 48000 Hz, stereo, fltp
   Metadata:
     variant_bitrate : 0
Stream mapping:
 Stream #0:1 -> #0:0 (copy)
 Stream #0:0 -> #0:1 (copy)
Press [q] to stop, [?] for help
frame=   71 fps=0.0 q=-1.0 size=     256kB time=00:00:02.80 bitrate= 749.3kbits/s speed=3.42x    
frame=  203 fps=154 q=-1.0 size=     768kB time=00:00:08.08 bitrate= 778.7kbits/s speed=6.12x    
frame=  217 fps=113 q=-1.0 size=    1024kB time=00:00:08.64 bitrate= 971.0kbits/s speed=4.51x    
frame=  318 fps=131 q=-1.0 size=    1536kB time=00:00:12.68 bitrate= 992.4kbits/s speed=5.22x    
[hls,applehttp @ 00a5c260] Opening 'crypto+https://rtl-hls-aes-longtail.akamaized.net/10/v166/aes/adaptive/components/huistuinkeuken/helpmijnmanisklusser/324971/362b5940-b1cd-37b1-a674-76ab5ea08ca7.ssm/362b5940-b1cd-37b1-a674-76ab5ea08ca7.ism/362b5940-b1cd-37b1-a674-76ab5ea08ca7-audio=128000-video=890000-2.ts' for reading
[https @ 00cbd140] the user-agent option is deprecated, please use user_agent option
frame=  497 fps=126 q=-1.0 size=    2304kB time=00:00:19.85 bitrate= 950.5kbits/s speed=5.03x    
frame=  523 fps=117 q=-1.0 size=    2304kB time=00:00:20.88 bitrate= 904.0kbits/s speed=4.68x    
frame=  549 fps=110 q=-1.0 size=    2560kB time=00:00:21.92 bitrate= 956.8kbits/s speed= 4.4x    
frame=  626 fps=112 q=-1.0 size=    2816kB time=00:00:25.00 bitrate= 922.8kbits/s speed=4.48x    
[hls,applehttp @ 00a5c260] Opening 'crypto+https://rtl-hls-aes-longtail.akamaized.net/10/v166/aes/adaptive/components/huistuinkeuken/helpmijnmanisklusser/324971/362b5940-b1cd-37b1-a674-76ab5ea08ca7.ssm/362b5940-b1cd-37b1-a674-76ab5ea08ca7.ism/362b5940-b1cd-37b1-a674-76ab5ea08ca7-audio=128000-video=890000-3.ts' for reading
[https @ 00cbd140] the user-agent option is deprecated, please use user_agent option
frame=  747 fps=107 q=-1.0 size=    3584kB time=00:00:29.86 bitrate= 983.2kbits/s speed=4.27x    
frame=  777 fps=103 q=-1.0 size=    3584kB time=00:00:31.04 bitrate= 945.9kbits/s speed=4.12x    
frame=  812 fps=101 q=-1.0 size=    3840kB time=00:00:32.44 bitrate= 969.7kbits/s speed=4.03x    
frame=  913 fps=104 q=-1.0 size=    4352kB time=00:00:36.48 bitrate= 977.3kbits/s speed=4.17x    
[hls,applehttp @ 00a5c260] Opening 'crypto+https://rtl-hls-aes-longtail.akamaized.net/10/v166/aes/adaptive/components/huistuinkeuken/helpmijnmanisklusser/324971/362b5940-b1cd-37b1-a674-76ab5ea08ca7.ssm/362b5940-b1cd-37b1-a674-76ab5ea08ca7.ism/362b5940-b1cd-37b1-a674-76ab5ea08ca7-audio=128000-video=890000-4.ts' for reading
[https @ 00cbd140] the user-agent option is deprecated, please use user_agent option
frame=  997 fps=100 q=-1.0 size=    4864kB time=00:00:39.86 bitrate= 999.4kbits/s speed=3.98x    
frame= 1019 fps= 97 q=-1.0 size=    4864kB time=00:00:40.72 bitrate= 978.6kbits/s speed=3.86x    
frame= 1062 fps= 96 q=-1.0 size=    5120kB time=00:00:42.44 bitrate= 988.3kbits/s speed=3.83x    
frame= 1182 fps=100 q=-1.0 size=    5632kB time=00:00:47.24 bitrate= 976.7kbits/s speed=4.01x    
[hls,applehttp @ 00a5c260] Opening 'crypto+https://rtl-hls-aes-longtail.akamaized.net/10/v166/aes/adaptive/components/huistuinkeuken/helpmijnmanisklusser/324971/362b5940-b1cd-37b1-a674-76ab5ea08ca7.ssm/362b5940-b1cd-37b1-a674-76ab5ea08ca7.ism/362b5940-b1cd-37b1-a674-76ab5ea08ca7-audio=128000-video=890000-5.ts' for reading
[https @ 00cbd140] the user-agent option is deprecated, please use user_agent option
frame= 1247 fps= 96 q=-1.0 size=    6144kB time=00:00:49.87 bitrate=1009.2kbits/s speed=3.85x    
frame= 1274 fps= 95 q=-1.0 size=    6144kB time=00:00:50.92 bitrate= 988.5kbits/s speed=3.79x    
frame= 1322 fps= 95 q=-1.0 size=    6400kB time=00:00:52.84 bitrate= 992.2kbits/s speed=3.78x    
frame= 1454 fps=100 q=-1.0 size=    7168kB time=00:00:58.12 bitrate=1010.3kbits/s speed=4.02x    
[hls,applehttp @ 00a5c260] Opening 'crypto+https://rtl-hls-aes-longtail.akamaized.net/10/v166/aes/adaptive/components/huistuinkeuken/helpmijnmanisklusser/324971/362b5940-b1cd-37b1-a674-76ab5ea08ca7.ssm/362b5940-b1cd-37b1-a674-76ab5ea08ca7.ism/362b5940-b1cd-37b1-a674-76ab5ea08ca7-audio=128000-video=890000-6.ts' for reading
[https @ 00cbd140] the user-agent option is deprecated, please use user_agent option
frame= 1497 fps= 96 q=-1.0 size=    7168kB time=00:00:59.85 bitrate= 981.0kbits/s speed=3.83x    
frame= 1524 fps= 94 q=-1.0 size=    7424kB time=00:01:00.92 bitrate= 998.3kbits/s speed=3.77x    
frame= 1562 fps= 94 q=-1.0 size=    7680kB time=00:01:02.44 bitrate=1007.6kbits/s speed=3.75x    
frame= 1695 fps= 99 q=-1.0 size=    8192kB time=00:01:07.76 bitrate= 990.4kbits/s speed=3.95x    
#38
Is je VPN wel betrouwbaar? Ik heb er verschillende gehad en sommigen gaven geen data meer door voor enige minuten en dan breekt inderdaad je download af. Kun je met die VPN wel zonder enig probleem een programma online bekijken of gaat dat verkeerd? Zo ja andere VPN nemen die je wel het gehele programma zonder problemen laat bekijken. Alles hangt af van een stabiele internet verbinding.
Met vriendelijke groet, penthe
#39
Ik vind dit heel erg, dat je RTL nu niet meer met gemistdownloader kan zien. Ik woon in Duitsland, en ik weet nu echt niet meer, hoe ik verder dit kan bekjiken... vpn is geen oplossing voor mij, ik heb niet veel geld... :-(
#40
Vreemd want over een zeer korte tijd is geoblocking verboden in heel de EU...


Ga naar locatie:


Gebruikers die dit topic lezen: 2 gast(en)